Сегодня идет свободное скачивание без начисления Download

Пятничный ужин / Обед в пятницу вечером / Friday Night Dinner / Сезон: 4 / Серии: 1 (Мартин Деннис, Стив Бенделак) [2016, Комедия, HDTVRip] Original + Rus Subs (Notabenoid)

Ответить на тему
 
Автор
Сообщение

Omen ®

Стаж: 5 лет 11 месяцев

Сообщений: 184329

Торрент-статистика

Пост 25-Июл-2016 01:01

[Цитировать]

Пятничный ужин / Обед в пятницу вечером / Friday Night Dinner
Год выпуска: 2016
Страна: Великобритания
Жанр: Комедия
Продолжительность: 1 х ~ 00:24:00
Перевод: Субтитры [Notabenoid]
Переводчики: cherednichen
Режиссёр: Мартин Деннис, Стив Бенделак
В ролях: Саймон Бёрд, Том Розенталь, Тэмсин Грег, Пол Риттер, Марк Хип, Фрэнсис Кука, Трейси Энн Оберман, Гарри Лэндис, Таппенс Мидлтон, Пол МакНейлли и др.
Описание: Каждую пятницу двадцати-с-чем-то-летние братья Адам и Джонни Гудман возвращаются в родительский дом на семейный обед. Братьям эти еженедельные встречи представляются событием раздражающим, хоть и необходимым — необходимым, потому что их всё же накормят, а раздражающим, поскольку им предстоит провести вечер с отцом и матерью. Это не идеальные мать и отец. Это обычные мать и отец. Не считая того, что отец хлебает кетчуп из бутылки, мать одержима кулинарным шоу «Мастер-шеф», а бабушка любит щеголять по дому в одном новом бикини…
Сэмпл: http://sendfile.su/1252878
Качество: HDTVRip
Формат: AVI
Видео: 720x404 (1.78:1), 25 fps, XviD build 63 ~1994 kbps avg, 0.27 bit/pixel
Аудио: 44.100 kHz, MPEG Layer 3, 2 ch, ~128.00 kbps avg
Субтитры: Русские (хардсаб)

MediaInfo

Общее
Полное имя : D:\Friday Night Dinner s04\Friday.Night.Dinner.S04E01_xvid.avi
Формат : AVI
Формат/Информация : Audio Video Interleave
Размер файла : 364 Мбайт
Продолжительность : 23 м.
Общий поток : 2135 Кбит/сек
Программа кодирования : Lavf55.19.104
Видео
Идентификатор : 0
Формат : xvid
Идентификатор кодека : xvid
Продолжительность : 23 м.
Битрейт : 1995 Кбит/сек
Ширина : 720 пикселей
Высота : 404 пикселя
Соотношение сторон : 16:9
Частота кадров : 25,000 кадров/сек
Бит/(Пиксели*Кадры) : 0.274
Размер потока : 340 Мбайт (93%)
Аудио
Идентификатор : 1
Формат : MPEG Audio
Версия формата : Version 1
Профиль формата : Layer 3
Режим : Joint stereo
Расширение режима : MS Stereo
Идентификатор кодека : 55
Идентификатор кодека/Подсказка : MP3
Продолжительность : 23 м.
Вид битрейта : Постоянный
Битрейт : 128 Кбит/сек
Каналы : 2 канала
Частота : 44,1 КГц
Метод сжатия : С потерями
Размер потока : 21,8 Мбайт (6%)
Выравнивание : Соединение по промежуткам
Продолжительность промежутка : 26 мс. (0,65 видеокадр)
Время предзагрузки промежутка : 26 мс.
Общее
Полное имя : D:\Friday Night Dinner s04\rus sub\Friday.Night.Dinner.S04E01_xvid.srt
Размер файла : 50,0 Кбайт

Скриншоты


Внимание! Раздача ведётся путём добавления новых серий

Внимание! Раздача ведётся путём добавления новых серий; при каждом добавлении создаётся новый торрент. Чтобы начать докачку новой серии, пользователям необходимо сделать следующее:
(1) остановить скачивание,
(2) удалить старый торрент у себя из клиента (старые серии удалять не надо),
(3) скачать новый торрент и запустить его у себя в клиенте вместо старого, при этом указать клиенту путь в старую папку куда и должно происходить скачивание новых серий.
Ваш клиент при этом должен произвести хеширование (проверку) старой папки (если не производит сам - помогите ему сделать это), и будет докачивать только те серии которых у вас ещё нет. Старые серии при этом не удаляются, а продолжают раздаваться!
Eсли вы уже удалили старые серии, то предотвратить повторную закачку старых серий можно, отжав галочку в соответствующих местах при запуске нового торрента. По возможности, желательно не удалять старые серии как можно дольше чтобы релизёр не столько продолжал раздавать старые серии, а смог сконцентрироваться на новых.
Вне форума [Профиль] [ЛС]
Показать сообщения:    
Ответить на тему

Текущее время: Сегодня 11:51

Часовой пояс: GMT + 3



Вы не можете начинать темы
Вы не можете отвечать на сообщения
Вы не можете редактировать свои сообщения
Вы не можете удалять свои сообщения
Вы не можете голосовать в опросах
Вы не можете прикреплять файлы к сообщениям
Вы не можете скачивать файлы