Сегодня идет свободное скачивание без начисления Download

Эрмезинда / Ermessenda / Сезон: 1 / Серии: 1 из 2 (Льюис Мария Гуэль / Lluís Maria Güell) [2011, история, HDTV 1080i] MVO

Ответить на тему
 
Автор
Сообщение

Omen ®

Стаж: 5 лет 6 месяцев

Сообщений: 186946

Торрент-статистика

Пост 25-Июл-2016 01:00

[Цитировать]

Эрмезинда / Ermessenda1 серия из 2-х Год выпуска: 2011
Страна: Испания
Жанр: история
Продолжительность: 01:23:46
Перевод: Профессиональный (многоголосый закадровый)
Режиссёр: Льюис Мария Гуэль / Lluís Maria Güell
В ролях: Лайя Маруль, Льюис Омар, Роса Реном, Хулио Манрике, Пау Дура, Дафнис Бальдус, Альваро Сервантес, Рохер Кома, Франсеск Гарридо, Франсеск Орелья
Описание:
история шестидесятилетнего правления Эрмезинды Каркассон, графини Барселоны, Жерона и Осона во время глобальных изменений в обществе.
Доп.информация: HDTVRIp

Сэмпл: http://sendfile.su/1252648
Качество: HDTV 1080i
Контейнер: TS
Видео: AVC/H.264, PAL, 1920х1080 (16:9), 25 fps, 9712 Кбит/сек
Аудио 1: русский, MP2, 48000 Hz, 192 Кбит/сек, 2 ch
Аудио 2: русский, AC3, 48000 Hz, 448 Кбит/сек, 6 ch
Субтитры: отсутствуют

MediaInfo

Общее
Идентификатор : 1 (0x1)
Полное имя : G:\Раздать\Ermessenda (HDTV1080i)\Ermessenda (01серия).ts
Формат : MPEG-TS
Размер файла : 6,38 Гбайт
Продолжительность : 1 ч. 23 м.
Режим общего битрейта : Переменный
Общий поток : 10,9 Мбит/сек
Видео
Идентификатор : 3031 (0xBD7)
Идентификатор меню : 1 (0x1)
Формат : AVC
Формат/Информация : Advanced Video Codec
Профиль формата : Main@L4.0
Параметр CABAC формата : Да
Параметр ReFrames формата : 4 кадра
Параметр GOP формата : M=1, N=32
Идентификатор кодека : 27
Продолжительность : 1 ч. 23 м.
Битрейт : 9712 Кбит/сек
Ширина : 1920 пикселей
Высота : 1080 пикселей
Соотношение сторон : 16:9
Частота кадров : 25,000 кадров/сек
Цветовое пространство : YUV
Субдискретизация насыщенности : 4:2:0
Битовая глубина : 8 бит
Тип развёртки : Чересстрочная
Порядок развёртки : Верхнее поле первое
Бит/(Пиксели*Кадры) : 0.187
Размер потока : 5,68 Гбайт (89%)
Основные цвета : BT.709
Характеристики трансфера : BT.709
Коэффициенты матрицы : BT.709
colour_range : Limited
Аудио #1
Идентификатор : 3032 (0xBD8)
Идентификатор меню : 1 (0x1)
Формат : MPEG Audio
Версия формата : Version 1
Профиль формата : Layer 2
Идентификатор кодека : 3
Продолжительность : 1 ч. 23 м.
Вид битрейта : Постоянный
Битрейт : 192 Кбит/сек
Каналы : 2 канала
Частота : 48,0 КГц
Метод сжатия : С потерями
Размер потока : 115 Мбайт (2%)
Язык : Russian
Аудио #2
Идентификатор : 3033 (0xBD9)
Идентификатор меню : 1 (0x1)
Формат : AC-3
Формат/Информация : Audio Coding 3
Расширение режима : CM (complete main)
Параметр Endianness формата : Big
Идентификатор кодека : 6
Продолжительность : 1 ч. 23 м.
Вид битрейта : Постоянный
Битрейт : 448 Кбит/сек
Каналы : 6 каналов
Расположение каналов : Front: L C R, Side: L R, LFE
Частота : 48,0 КГц
Битовая глубина : 16 бит
Метод сжатия : С потерями
Размер потока : 268 Мбайт (4%)
Язык : Russian

Скриншоты с названием фильма

Скриншоты

Внимание! Раздача ведётся путём добавления новых серий.

Внимание! Раздача ведётся путём добавления новых серий; при каждом добавлении создётся новый торрент. Чтобы начать докачку новой серии, пользователям необходимо сделать следующее:
(1) остановить скачивание,
(2) удалить старый торрент у себя из клиента (старые серии удалять не надо),
(3) скачать новый торрент и запустить его у себя в клиенте вместо старого, при этом указать клиенту путь в старую папку куда и должно происходить скачивание новых серий.
Ваш клиент при этом должен произвести хеширование (проверку) старой папки (если не производит сам - помогите ему сделать это), и будет докачивать только те серии которых у вас ещё нет. Старые серии при этом не удаляются, а продолжают раздаваться!
Eсли вы уже удалили старые серии, то предотвратить повторную закачку старых серий можно, отжав галочку в соответсвующих местах при запуске нового торрента. По возможности, желательно не удалять старые серии как можно дольше чтобы релизёр не столько продолжал раздавать старые серии, а смог сконцентрироваться на новых.
Вне форума [Профиль] [ЛС]
Показать сообщения:    
Ответить на тему

Текущее время: Сегодня 01:25

Часовой пояс: GMT + 3



Вы не можете начинать темы
Вы не можете отвечать на сообщения
Вы не можете редактировать свои сообщения
Вы не можете удалять свои сообщения
Вы не можете голосовать в опросах
Вы не можете прикреплять файлы к сообщениям
Вы не можете скачивать файлы