Сегодня идет свободное скачивание без начисления Download

Карантин / Containment / Сезон: 1 / Серии: 1-13 из 13 (Чарльз Бисон, Дэвид Наттер, Лэнс Андерсон, Дэвид Бойд) [2016, драма, WEB-DL 720p] MVO (Jaskier) + Original + Eng Subs

Ответить на тему
 
Автор
Сообщение

Omen ®

Стаж: 5 лет 11 месяцев

Сообщений: 184329

Торрент-статистика

Пост 24-Июл-2016 01:00

[Цитировать]

--Карантин | Containment-- ✦ Год выпуска: 2016
✦ Страна: США
✦ Жанр: драма
✦ Продолжительность: ~ 00:43:00-✦ Перевод: Профессиональный (многоголосый закадровый) | Jaskier-✦ Режиссёр: Чарльз Бисон, Дэвид Наттер, Лэнс Андерсон, Дэвид Бойд-✦ В ролях: Дэвид Гяси, Кристина Моусес, Крис Вуд, Кристен Гутоски, Клаудия Блэк, Джордж Янг, Ханна Мэнгэн Лоуренс, Тревор Ст. Джон, Захари Унгер, Надин Левингтон и др.-✦ Описание: Сюжет рассказывает о вспышке таинственной и смертельной эпидемии в Атланте, из-за которой часть города закрывается на карантин, в то время как местные и федеральные чиновники отчаянно ищут лекарство….- --⚫ Качество: WEB-DL 720p
⚫ Формат: MKV
⚫ Видео: x264, ~ 4000 kbps, 1280х718 (16:9), 23,976 fps
⚫ Аудио #1: AC3, 48 kHz, 6 ch, 384 kbps - Rus
⚫ Аудио #2: AC3, 48 kHz, 6 ch, 384 kbps - Eng
⚫ Субтитры: английские-Рекламы нет-

〤 Релиз 〤

Перевод и озвучивание Студия Jaskier
Релиз: k-marat-s

〤 MediaInfo 〤

Код:
Общее
Уникальный идентификатор                 : 235137958768761729325341760457111426733 (0xB0E5EC70192CE471890CEB9EC4FAD6AD)
Полное имя                               : D:\загрузки\Containment.S01.720p.WEB-DL.Rus.Eng.HDCLUB\Containment.S01E13.720p.WEB-DL.Rus.Eng.HDCLUB.mkv
Формат                                   : Matroska
Версия формата                           : Version 4 / Version 2
Размер файла                             : 1,40 Гбайт
Продолжительность                        : 42 м.
Общий поток                              : 4780 Кбит/сек
Название фильма                          : Containment 1x13 (2016) - Release kmarats for HDCLUB
Дата кодирования                         : UTC 2016-07-23 08:14:21
Программа кодирования                    : mkvmerge v9.2.0 ('Photograph') 64bit
Библиотека кодирования                   : libebml v1.3.3 + libmatroska v1.4.4
Видео
Идентификатор                            : 1
Формат                                   : AVC
Формат/Информация                        : Advanced Video Codec
Профиль формата                          : High@L3.1
Параметр CABAC формата                   : Нет
Параметр ReFrames формата                : 2 кадра
Идентификатор кодека                     : V_MPEG4/ISO/AVC
Продолжительность                        : 42 м.
Битрейт                                  : 3917 Кбит/сек
Ширина                                   : 1280 пикселей
Высота                                   : 718 пикселей
Соотношение сторон                       : 16:9
Режим частоты кадров                     : Постоянный
Частота кадров                           : 23,976 кадра/сек
Цветовое пространство                    : YUV
Субдискретизация насыщенности            : 4:2:0
Битовая глубина                          : 8 бит
Тип развёртки                            : Прогрессивная
Бит/(Пиксели*Кадры)                      : 0.178
Размер потока                            : 1,15 Гбайт (82%)
Заголовок                                : Containment 1x13 (2016) - Release kmarats for HDCLUB
Язык                                     : English
Default                                  : Да
Forced                                   : Нет
Основные цвета                           : BT.709
Характеристики трансфера                 : BT.709
Коэффициенты матрицы                     : BT.709
Аудио #1
Идентификатор                            : 2
Формат                                   : AC-3
Формат/Информация                        : Audio Coding 3
Расширение режима                        : CM (complete main)
Параметр Endianness формата              : Big
Идентификатор кодека                     : A_AC3
Продолжительность                        : 42 м.
Вид битрейта                             : Постоянный
Битрейт                                  : 384 Кбит/сек
Каналы                                   : 6 каналов
Расположение каналов                     : Front: L C R, Side: L R, LFE
Частота                                  : 48,0 КГц
Битовая глубина                          : 16 бит
Метод сжатия                             : С потерями
Размер потока                            : 115 Мбайт (8%)
Заголовок                                : Jaskier
Язык                                     : Russian
Default                                  : Да
Forced                                   : Нет
Аудио #2
Идентификатор                            : 3
Формат                                   : AC-3
Формат/Информация                        : Audio Coding 3
Расширение режима                        : CM (complete main)
Параметр Endianness формата              : Big
Идентификатор кодека                     : A_AC3
Продолжительность                        : 42 м.
Вид битрейта                             : Постоянный
Битрейт                                  : 384 Кбит/сек
Каналы                                   : 6 каналов
Расположение каналов                     : Front: L C R, Side: L R, LFE
Частота                                  : 48,0 КГц
Битовая глубина                          : 16 бит
Метод сжатия                             : С потерями
Размер потока                            : 115 Мбайт (8%)
Заголовок                                : English
Язык                                     : English
Default                                  : Нет
Forced                                   : Нет
Текст
Идентификатор                            : 4
Формат                                   : UTF-8
Идентификатор кодека                     : S_TEXT/UTF8
Идентификатор кодека/Информация          : UTF-8 Plain Text
Заголовок                                : eng-sub
Язык                                     : English
Default                                  : Нет
Forced                                   : Нет

〤 Скриншоты 〤

〤 Раздача ведется путем добавления новых серий 〤

Когда раздача ведётся путём добавления новых серий, при каждом добавлении создётся новый торрент. Чтобы начать докачку новой серии, пользователям необходимо сделать следующее:
(1) остановить скачивание,
(2) удалить старый торрент у себя из клиента (старые серии удалять не надо),
(3) скачать новый торрент и запустить его у себя в клиенте вместо старого, при этом указать клиенту путь в старую папку, куда и должно происходить скачивание новых серий.
Ваш клиент при этом должен произвести хеширование (проверку) старой папки (если не производит сам - помогите ему сделать это), и будет докачивать только те серии, которых у вас ещё нет. Старые серии при этом не удаляются, а продолжают раздаваться!
Eсли вы уже удалили старые серии, то предотвратить повторную закачку старых серий можно, отжав галочку в соответсвующих местах при запуске нового торрента. По возможности, желательно не удалять старые серии как можно дольше, чтобы релизёр не столько продолжал раздавать старые серии, а смог сконцентрироваться на новых.
-
Вне форума [Профиль] [ЛС]
Показать сообщения:    
Ответить на тему

Текущее время: Сегодня 07:55

Часовой пояс: GMT + 3



Вы не можете начинать темы
Вы не можете отвечать на сообщения
Вы не можете редактировать свои сообщения
Вы не можете удалять свои сообщения
Вы не можете голосовать в опросах
Вы не можете прикреплять файлы к сообщениям
Вы не можете скачивать файлы