Сегодня идет свободное скачивание без начисления Download

Игроки (Футболисты) / Ballers / Сезон: 2 / Серии: 1 из 10 / (Джулиан Фарино, Саймон Селлан Джоунс, Питер Берг) [2016, драма, комедия, спорт, HDTVRip] MVO (AMS) + Original

Ответить на тему
 
Автор
Сообщение

Omen ®

Стаж: 5 лет 6 месяцев

Сообщений: 186946

Торрент-статистика

Пост 24-Июл-2016 01:00

[Цитировать]

Игроки (Футболисты) / Ballers
Год выпуска: 2016
Страна: США
Жанр: Драма, комедия, спорт
Продолжительность: ~ 00:30:00
Перевод: Профессиональный многоголосый закадровый (Adiós Muchachos Studio)
Режиссёр: Джулиан Фарино, Саймон Селлан Джоунс, Питер Берг
В ролях: Дуэйн Джонсон, Роб Кордри, Джон Дэвид Вашингтон, Омар Бенсон Миллер, Донован В. Картер, Трой Гэрити, Жасмин Саймон, London Brown, Эллен Маргарит Калливан, Дьюли Хилл и другие
Описание:
Сюжет сериала разворачивается вокруг группы футболистов, их семей, друзей и тренеров.
/ Сэмпл
Качество: HDTVRip
Формат: AVI
Видео: XviD, 720 x 400, 16:9, 25 fps, ~ 2000 kbps, 0.278 bit/pixel
Аудио 1: Русский, AC3, 48.0 KHz, 6 channels, 384 Kbps
Аудио 2: Английский, AC3, 48.0 KHz, 6 channels, 384 Kbps
Субтитры: нет

MediaInfo

Общее
Полное имя : /Ballers.2015.S02.400p.HDTVRip.AMS/Ballers.2015.S02E01.400p.HDTVRip.AMS.avi
Формат : AVI
Формат/Информация : Audio Video Interleave
Размер файла : 507 Мбайт
Продолжительность : 25 м.
Общий поток : 2782 Кбит/сек
Программа кодирования : VirtualDubMod 1.5.10.3 | www.virtualdub-fr.org || (build 2550/release)
Библиотека кодирования : VirtualDubMod build 2550/release
Видео
Идентификатор : 0
Формат : MPEG-4 Visual
Профиль формата : Advanced Simple@L5
Параметр BVOP формата : 2
Параметр QPel формата : Нет
Параметр GMC формата : Без точки перехода
Параметр матрицы формата : Default (MPEG)
Идентификатор кодека : XVID
Идентификатор кодека/Подсказка : XviD
Продолжительность : 25 м.
Битрейт : 2000 Кбит/сек
Ширина : 720 пикселей
Высота : 400 пикселей
Соотношение сторон : 16:9
Частота кадров : 25,000 кадров/сек
Цветовое пространство : YUV
Субдискретизация насыщенности : 4:2:0
Битовая глубина : 8 бит
Тип развёртки : Прогрессивная
Метод сжатия : С потерями
Бит/(Пиксели*Кадры) : 0.278
Размер потока : 365 Мбайт (72%)
Библиотека кодирования : XviD 73
Аудио #1
Идентификатор : 1
Формат : AC-3
Формат/Информация : Audio Coding 3
Расширение режима : CM (complete main)
Параметр Endianness формата : Big
Идентификатор кодека : 2000
Продолжительность : 25 м.
Вид битрейта : Постоянный
Битрейт : 384 Кбит/сек
Каналы : 6 каналов
Расположение каналов : Front: L C R, Side: L R, LFE
Частота : 48,0 КГц
Частота кадров : 31,250 кадров/сек (1536 spf)
Метод сжатия : С потерями
Размер потока : 70,0 Мбайт (14%)
Выравнивание : Разделение по промежуткам
Продолжительность промежутка : 40 мс. (1,00 видеокадр)
Время предзагрузки промежутка : 500 мс.
Аудио #2
Идентификатор : 2
Формат : AC-3
Формат/Информация : Audio Coding 3
Расширение режима : CM (complete main)
Параметр Endianness формата : Big
Идентификатор кодека : 2000
Продолжительность : 25 м.
Вид битрейта : Постоянный
Битрейт : 384 Кбит/сек
Каналы : 6 каналов
Расположение каналов : Front: L C R, Side: L R, LFE
Частота : 48,0 КГц
Частота кадров : 31,250 кадров/сек (1536 spf)
Метод сжатия : С потерями
Размер потока : 70,0 Мбайт (14%)
Выравнивание : Разделение по промежуткам
Продолжительность промежутка : 40 мс. (1,00 видеокадр)
Время предзагрузки промежутка : 500 мс.

Скриншоты

Внимание! Раздача ведётся путём добавления новых серий

Внимание! Раздача ведётся путём добавления новых серий; при каждом добавлении создаётся новый торрент. Чтобы начать докачку новой серии, пользователям необходимо сделать следующее:
1) остановить скачивание,
2) удалить старый торрент у себя из клиента (старые серии удалять не надо),
3) скачать новый торрент и запустить его у себя в клиенте вместо старого, при этом указать клиенту путь в старую папку куда и должно происходить скачивание новых серий.
Ваш клиент при этом должен произвести хеширование (проверку) старой папки (если не производит сам - помогите ему сделать это), и будет докачивать только те серии которых у вас ещё нет. Старые серии при этом не удаляются, а продолжают раздаваться!
Eсли вы уже удалили старые серии, то предотвратить повторную закачку старых серий можно, отжав галочку в соответствующих местах при запуске нового торрента. По возможности, желательно не удалять старые серии как можно дольше чтобы релизёр не столько продолжал раздавать старые серии, а смог сконцентрироваться на новых.» [url=viewtopic.php?t=609808]Как закачать отдельный файл из торрента или докачать ранее пропущенные файлы торрента![/url]«
Вне форума [Профиль] [ЛС]
Похожие темы
Форум Тема Автор Торрент Отв. Посл. сообщение
./templates/default/images/folder_dl.gif Обучающее видео Скальпинг ртс . Под защитой крупного игрока [2014, Трейдинг, HDRip, RUS] (Видеоурок) Omen
1 | 0

0 | 998

6

2016-05-12 21:00
Omen Последнее
./templates/default/images/folder_dl.gif Новинки (HD|DVD|BD|WEB|TV|SAT|PDTV|-Rip) Первому игроку приготовиться / Ready Player One (Стивен Спилберг) [2018 г., фантастика, боевик, приключения, WEBRip] [MUZOBOZ] Theseus
2 | 0

0 | 159

13

2018-05-13 22:46
Theseus Последнее
Показать сообщения:    
Ответить на тему

Текущее время: Сегодня 16:01

Часовой пояс: GMT + 3



Вы не можете начинать темы
Вы не можете отвечать на сообщения
Вы не можете редактировать свои сообщения
Вы не можете удалять свои сообщения
Вы не можете голосовать в опросах
Вы не можете прикреплять файлы к сообщениям
Вы не можете скачивать файлы