Сегодня идет свободное скачивание без начисления Download

Игроки (Футболисты) / Ballers / Сезон: 2 / Серии: 1 из 10 / (Джулиан Фарино, Саймон Селлан Джоунс, Питер Берг) [2016, драма, комедия, спорт, HDTVRip 720p] MVO (AMS) + Original

Ответить на тему
 
Автор
Сообщение

Omen ®

Стаж: 5 лет 9 месяцев

Сообщений: 184402

Торрент-статистика

Пост 24-Июл-2016 01:00

[Цитировать]

Игроки (Футболисты) / Ballers
Год выпуска: 2016
Страна: США
Жанр: Драма, комедия, спорт
Продолжительность: ~ 00:30:00
Перевод: Профессиональный многоголосый закадровый (Adiós Muchachos Studio)
Режиссёр: Джулиан Фарино, Саймон Селлан Джоунс, Питер Берг
В ролях: Дуэйн Джонсон, Роб Кордри, Джон Дэвид Вашингтон, Омар Бенсон Миллер, Донован В. Картер, Трой Гэрити, Жасмин Саймон, London Brown, Эллен Маргарит Калливан, Дьюли Хилл и другие
Описание:
Сюжет сериала разворачивается вокруг группы футболистов, их семей, друзей и тренеров.
Сэмпл
Качество: HDTVRip 720p
Контейнер: MKV
Видео: AVC, 1280 x 720, 16:9, 25 fps, ~ 3600 kbps, 0.157 bit/pixel
Аудио 1: Русский, AC3, 48.0 KHz, 6 channels, 384 Kbps
Аудио 2: Английский, AC3, 48.0 KHz, 6 channels, 384 Kbps
Субтитры: нет

MediaInfo

Общее
Уникальный идентификатор : 251859619787668436978599399552609401351 (0xBD7A65FA78183A491E8D1A005C57BA07)
Полное имя : /Ballers.2015.S02.720p.HDTVRip.AMS/Ballers.2015.S02E01.720p.HDTVRip.AMS.mkv
Формат : Matroska
Версия формата : Version 4 / Version 2
Размер файла : 798 Мбайт
Продолжительность : 25 м.
Общий поток : 4378 Кбит/сек
Название фильма : Ballers 2x01 - Release from AMS
Дата кодирования : UTC 2016-07-22 21:45:20
Программа кодирования : mkvmerge v8.1.0 ('Psychedelic Postcard') 64bit
Библиотека кодирования : libebml v1.3.1 + libmatroska v1.4.2
Видео
Идентификатор : 1
Формат : AVC
Формат/Информация : Advanced Video Codec
Профиль формата : High@L4.1
Параметр CABAC формата : Да
Параметр ReFrames формата : 8 кадров
Идентификатор кодека : V_MPEG4/ISO/AVC
Продолжительность : 25 м.
Битрейт : 3608 Кбит/сек
Ширина : 1280 пикселей
Высота : 720 пикселей
Соотношение сторон : 16:9
Режим частоты кадров : Постоянный
Частота кадров : 25,000 кадров/сек
Цветовое пространство : YUV
Субдискретизация насыщенности : 4:2:0
Битовая глубина : 8 бит
Тип развёртки : Прогрессивная
Бит/(Пиксели*Кадры) : 0.157
Размер потока : 658 Мбайт (82%)
Заголовок : Ballers 2x01 - Release from AMS
Библиотека кодирования : x264 core 148 r2705 3f5ed56
Настройки программы : cabac=1 / ref=8 / deblock=1:0:0 / analyse=0x3:0x133 / me=umh / subme=9 / psy=1 / psy_rd=1.00:0.00 / mixed_ref=1 / me_range=16 / chroma_me=1 / trellis=2 / 8x8dct=1 / cqm=0 / deadzone=21,11 / fast_pskip=1 / chroma_qp_offset=-2 / threads=12 / lookahead_threads=1 / sliced_threads=0 / nr=0 / decimate=1 / interlaced=0 / bluray_compat=0 / constrained_intra=0 / bframes=3 / b_pyramid=2 / b_adapt=2 / b_bias=0 / direct=3 / weightb=1 / open_gop=0 / weightp=2 / keyint=250 / keyint_min=25 / scenecut=40 / intra_refresh=0 / rc_lookahead=60 / rc=crf / mbtree=1 / crf=18.0 / qcomp=0.60 / qpmin=0 / qpmax=69 / qpstep=4 / ip_ratio=1.40 / aq=1:1.00
Язык : English
Default : Да
Forced : Нет
Аудио #1
Идентификатор : 2
Формат : AC-3
Формат/Информация : Audio Coding 3
Расширение режима : CM (complete main)
Параметр Endianness формата : Big
Идентификатор кодека : A_AC3
Продолжительность : 25 м.
Вид битрейта : Постоянный
Битрейт : 384 Кбит/сек
Каналы : 6 каналов
Расположение каналов : Front: L C R, Side: L R, LFE
Частота : 48,0 КГц
Частота кадров : 31,250 кадров/сек (1536 spf)
Метод сжатия : С потерями
Размер потока : 70,0 Мбайт (9%)
Заголовок : MVO AMS
Язык : Russian
Default : Нет
Forced : Нет
Аудио #2
Идентификатор : 3
Формат : AC-3
Формат/Информация : Audio Coding 3
Расширение режима : CM (complete main)
Параметр Endianness формата : Big
Идентификатор кодека : A_AC3
Продолжительность : 25 м.
Вид битрейта : Постоянный
Битрейт : 384 Кбит/сек
Каналы : 6 каналов
Расположение каналов : Front: L C R, Side: L R, LFE
Частота : 48,0 КГц
Частота кадров : 31,250 кадров/сек (1536 spf)
Метод сжатия : С потерями
Размер потока : 70,0 Мбайт (9%)
Заголовок : English
Язык : English
Default : Нет
Forced : Нет

Скриншоты

Внимание! Раздача ведётся путём добавления новых серий

Внимание! Раздача ведётся путём добавления новых серий; при каждом добавлении создаётся новый торрент. Чтобы начать докачку новой серии, пользователям необходимо сделать следующее:
1) остановить скачивание,
2) удалить старый торрент у себя из клиента (старые серии удалять не надо),
3) скачать новый торрент и запустить его у себя в клиенте вместо старого, при этом указать клиенту путь в старую папку куда и должно происходить скачивание новых серий.
Ваш клиент при этом должен произвести хеширование (проверку) старой папки (если не производит сам - помогите ему сделать это), и будет докачивать только те серии которых у вас ещё нет. Старые серии при этом не удаляются, а продолжают раздаваться!
Eсли вы уже удалили старые серии, то предотвратить повторную закачку старых серий можно, отжав галочку в соответствующих местах при запуске нового торрента. По возможности, желательно не удалять старые серии как можно дольше чтобы релизёр не столько продолжал раздавать старые серии, а смог сконцентрироваться на новых.» [url=viewtopic.php?t=609808]Как закачать отдельный файл из торрента или докачать ранее пропущенные файлы торрента![/url]«
Вне форума [Профиль] [ЛС]
Показать сообщения:    
Ответить на тему

Текущее время: Сегодня 00:15

Часовой пояс: GMT + 3



Вы не можете начинать темы
Вы не можете отвечать на сообщения
Вы не можете редактировать свои сообщения
Вы не можете удалять свои сообщения
Вы не можете голосовать в опросах
Вы не можете прикреплять файлы к сообщениям
Вы не можете скачивать файлы