Сегодня идет свободное скачивание без начисления Download

Друзья / Friends / Сезон 7 / Серии 1-24 из 24 (Дэвид Крэйн / David Crane, Марта Кауффман / Marta Kauffman) [2000-2001, США, мелодрама, комедия, BDRip-AVC] MVO (РТР) + Original + Sub (Rus, Eng)

Ответить на тему
 
Автор
Сообщение

Omen ®

Стаж: 5 лет 7 месяцев

Сообщений: 185412

Торрент-статистика

Пост 24-Июл-2016 01:00

[Цитировать]

--Друзья / Friends«Everybody needs Friends!»---- Страна: США
Жанр: мелодрама, комедия
Год выхода: 2000-2001
Продолжительность: 24 x 22 мин.
Перевод: профессиональный (многоголосый, закадровый) (РТР)
Субтитры: русские, английские (SDH)
Оригинальная аудиодорожка: английская
Режиссер: Дэвид Крэйн, Марта Кауффман
В ролях: Дженнифер Энистон, Кортни Кокс, Лиза Кудроу, Мэтт ЛеБлан, Мэттью Перри, Дэвид Швиммер
О фильме: Главные герои — шестеро друзей — Рейчел, Моника, Фиби, Джоуи, Чендлер и Росс. Три девушки и три парня, которые дружат, живут по соседству, вместе убивают время и противостоят жестокой реальности, делятся своими секретами и иногда очень сильно влюбляются.

Релиз от -
Автор: Gellard
Сэмпл: скачать
Качество: BDRip-AVC (источник: HDCLUB / Blu-Ray Disc / 1080p)
Формат: MKV
Видео: 1024x576 (16:9), 23.976 fps, x264, ~2200 kbps avg, 0.156 bit/pixel
Аудио #1: (MVO) 48 kHz, AC3 Dolby Digital, 2/0 (L,R) ch, 192.00 kbps avg
Аудио #2: (ENG) 48 kHz, AC3 Dolby Digital, 3/2 (L,C,R,l,r) + LFE ch, 384.00 kbps avg
Размер: ~435 Mb--

Скриншоты

Список серий

  • Friends S07E01: Эпизод с вечеринкой Моники / The One with Monica's Thunder (2000)
  • Friends S07E02: Эпизод с книгой Рэйчел / The One with Rachel's Book (2000)
  • Friends S07E03: Эпизод с печеньем Фиби / The One with Phoebe's Cookies (2000)
  • Friends S07E04: Эпизод с ассистентом Рэйчел / The One with Rachel's Assistant (2000)
  • Friends S07E05: Эпизод с фотографией для помолвки / The One with the Engagement Picture (2000)
  • Friends S07E06: Эпизод со спящими / The One with the Nap Partners (2000)
  • Friends S07E07: Эпизод с библиотечной книгой Росса / The One with Ross' Library Book (2000)
  • Friends S07E08: Эпизод, в котором выясняется, что Чендлер не любит собак / The One Where Chandler Doesn't Like Dogs (2000)
  • Friends S07E09: Эпизод со всеми конфетами / The One with All the Candy (2000)
  • Friends S07E10: Эпизод с Рождественским Броненосцем / The One with the Holiday Armadillo (2000)
  • Friends S07E11: Эпизод с сырными пирогами / The One with All the Cheesecakes (2001)
  • Friends S07E12: Эпизод, в котором никто не спит / The One Where They're Up All Night (2001)
  • Friends S07E13: Эпизод, в котором Розита умирает / The One Where Rosita Dies (2001)
  • Friends S07E14: Эпизод, в котором всем исполняется по 30 / The One Where They All Turn Thirty (2001)
  • Friends S07E15: Эпизод c новым мозгом Джо / The One with Joey's New Brain (2001)
  • Friends S07E16: Эпизод со всей правдой о Лондоне / The One with the Truth About London (2001)
  • Friends S07E17: Эпизод с дешёвым свадебным платьем / The One with the Cheap Wedding Dress (2001)
  • Friends S07E18: Эпизод с наградой Джо / The One with Joey's Award (2001)
  • Friends S07E19: Эпизод с кузиной Росса и Моники / The One with Ross and Monica's Cousin (2001)
  • Friends S07E20: Эпизод с Великим Поцелуем Рэйчел / The One with Rachel's Big Kiss (2001)
  • Friends S07E21: Эпизод с Клятвами / The One with the Vows (2001)
  • Friends S07E22: Эпизод с отцом Чендлера / The One with Chandler's Dad (2001)
  • Friends S07E23: Эпизод со свадьбой Моники и Чендлера, часть 1 / The One with Monica and Chandler's Wedding: Part 1 (2001)
  • Friends S07E24: Эпизод со свадьбой Моники и Чендлера, часть 2 / The One with Monica and Chandler's Wedding: Part 2 (2001)

MediaInfo

Код:
Complete name                            : Friends.S07E01.The.One.with.Monica's.Thunder.mkv
Format                                   : Matroska
Format version                           : Version 4 / Version 2
File size                                : 436 MiB
Duration                                 : 21mn 58s
Overall bit rate                         : 2 777 Kbps
Encoded date                             : UTC 2014-04-06 07:02:54
Writing application                      : mkvmerge v6.5.0 ('Isn't she lovely') built on Oct 20 2013 12:50:05
Writing library                          : libebml v1.3.0 + libmatroska v1.4.1
Video
ID                                       : 1
Format                                   : AVC
Format/Info                              : Advanced Video Codec
Format profile                           : High@L4.1
Format settings, CABAC                   : Yes
Format settings, ReFrames                : 9 frames
Codec ID                                 : V_MPEG4/ISO/AVC
Duration                                 : 21mn 58s
Bit rate                                 : 2 200 Kbps
Width                                    : 1 024 pixels
Height                                   : 576 pixels
Display aspect ratio                     : 16:9
Frame rate mode                          : Constant
Frame rate                               : 23.976 fps
Color space                              : YUV
Chroma subsampling                       : 4:2:0
Bit depth                                : 8 bits
Scan type                                : Progressive
Bits/(Pixel*Frame)                       : 0.156
Stream size                              : 337 MiB (77%)
Title                                    : Friends S07E01: Эпизод с вечеринкой Моники / The One with Monica's Thunder (2000) BDRip-AVC by Gellard
Writing library                          : x264 core 138 r2358 9e941d1
Encoding settings                        : cabac=1 / ref=9 / deblock=1:-2:-1 / analyse=0x3:0x113 / me=umh / subme=11 / psy=1 / psy_rd=1.10:0.10 / mixed_ref=1 / me_range=32 / chroma_me=1 / trellis=2 / 8x8dct=1 / cqm=0 / deadzone=21,11 / fast_pskip=1 / chroma_qp_offset=-5 / threads=9 / lookahead_threads=1 / sliced_threads=0 / nr=0 / decimate=1 / interlaced=0 / bluray_compat=0 / constrained_intra=0 / bframes=9 / b_pyramid=2 / b_adapt=2 / b_bias=0 / direct=1 / weightb=1 / open_gop=0 / weightp=2 / keyint=240 / keyint_min=23 / scenecut=40 / intra_refresh=0 / rc_lookahead=40 / rc=2pass / mbtree=1 / bitrate=2200 / ratetol=1.0 / qcomp=0.60 / qpmin=10 / qpmax=69 / qpstep=4 / cplxblur=20.0 / qblur=0.5 / vbv_maxrate=62500 / vbv_bufsize=50000 / nal_hrd=none / ip_ratio=1.40 / aq=1:0.90
Language                                 : English
Default                                  : Yes
Forced                                   : No
Audio #1
ID                                       : 2
Format                                   : AC-3
Format/Info                              : Audio Coding 3
Mode extension                           : CM (complete main)
Format settings, Endianness              : Big
Codec ID                                 : A_AC3
Duration                                 : 21mn 58s
Bit rate mode                            : Constant
Bit rate                                 : 192 Kbps
Channel count                            : 2 channels
Channel positions                        : Front: L R
Sampling rate                            : 48.0 KHz
Bit depth                                : 16 bits
Compression mode                         : Lossy
Stream size                              : 30.2 MiB (7%)
Title                                    : Многоголосый (РТР) AC3 2.0 @ 192 kbps
Language                                 : Russian
Default                                  : Yes
Forced                                   : No
Audio #2
ID                                       : 3
Format                                   : AC-3
Format/Info                              : Audio Coding 3
Mode extension                           : CM (complete main)
Format settings, Endianness              : Big
Codec ID                                 : A_AC3
Duration                                 : 21mn 58s
Bit rate mode                            : Constant
Bit rate                                 : 384 Kbps
Channel count                            : 6 channels
Channel positions                        : Front: L C R, Side: L R, LFE
Sampling rate                            : 48.0 KHz
Bit depth                                : 16 bits
Compression mode                         : Lossy
Stream size                              : 60.4 MiB (14%)
Title                                    : Оригинал AC3 5.1 @ 384 kbps
Language                                 : English
Default                                  : No
Forced                                   : No
Text #1
ID                                       : 4
Format                                   : UTF-8
Codec ID                                 : S_TEXT/UTF8
Codec ID/Info                            : UTF-8 Plain Text
Title                                    : Русские
Language                                 : Russian
Default                                  : No
Forced                                   : No
Text #2
ID                                       : 5
Format                                   : UTF-8
Codec ID                                 : S_TEXT/UTF8
Codec ID/Info                            : UTF-8 Plain Text
Title                                    : Английские (SDH)
Language                                 : English
Default                                  : No
Forced                                   : No
Вне форума [Профиль] [ЛС]
Показать сообщения:    
Ответить на тему

Текущее время: Сегодня 13:18

Часовой пояс: GMT + 3



Вы не можете начинать темы
Вы не можете отвечать на сообщения
Вы не можете редактировать свои сообщения
Вы не можете удалять свои сообщения
Вы не можете голосовать в опросах
Вы не можете прикреплять файлы к сообщениям
Вы не можете скачивать файлы