Сегодня идет свободное скачивание без начисления Download

Друзья / Friends / Сезон 10 / Серии 1-18 из 18 (Дэвид Крэйн / David Crane, Марта Кауффман / Marta Kauffman) [2003-2004, США, мелодрама, комедия, BDRip-AVC] MVO (РТР) + Original + Sub (Rus, Eng)

Ответить на тему
 
Автор
Сообщение

Omen ®

Стаж: 5 лет 11 месяцев

Сообщений: 184329

Торрент-статистика

Пост 24-Июл-2016 01:00

[Цитировать]

--Друзья / Friends«Everybody needs Friends!»---- Страна: США
Жанр: мелодрама, комедия
Год выхода: 2003-2004
Продолжительность: 18 x 24 мин.
Перевод: профессиональный (многоголосый, закадровый) (РТР)
Субтитры: русские, английские
Оригинальная аудиодорожка: английская
Режиссер: Дэвид Крэйн, Марта Кауффман
В ролях: Дженнифер Энистон, Кортни Кокс, Лиза Кудроу, Мэтт ЛеБлан, Мэттью Перри, Дэвид Швиммер
О фильме: Главные герои — шестеро друзей — Рейчел, Моника, Фиби, Джоуи, Чендлер и Росс. Три девушки и три парня, которые дружат, живут по соседству, вместе убивают время и противостоят жестокой реальности, делятся своими секретами и иногда очень сильно влюбляются.

Релиз от -
Автор: Gellard
Сэмпл: скачать
Качество: BDRip-AVC (источник: HDCLUB / Blu-Ray Disc / 1080p)
Формат: MKV
Видео: 1024x576 (16:9), 23.976 fps, x264, ~2200 kbps avg, 0.156 bit/pixel
Аудио #1: (MVO) 48 kHz, AC3 Dolby Digital, 2/0 (L,R) ch, 192.00 kbps avg
Аудио #2: (ENG) 48 kHz, AC3 Dolby Digital, 3/2 (L,C,R,l,r) + LFE ch, 384.00 kbps avg
Размер: ~500 Mb--

Скриншоты

Список серий

  • Friends S10E01: Эпизод после поцелуя Джо и Рейчел / The One After Joey and Rachel Kiss (2003)
  • Friends S10E02: Эпизод, где Росс в порядке / The One Where Ross Is Fine (2003)
  • Friends S10E03: Эпизод c загаром Росса / The One with Ross's Tan (2003)
  • Friends S10E04: Эпизод с тортом / The One with the Cake (2003)
  • Friends S10E05: Эпизод, в котором сестра Рэйчел нянчится / The One Where Rachel's Sister Babysits (2003)
  • Friends S10E06: Эпизод с грантом Росса / The One with Ross' Grant (2003)
  • Friends S10E07: Эпизод с осмотром квартиры / The One with the Home Study (2003)
  • Friends S10E08: Эпизод с запоздавшим днём благодарения / The One with the Late Thanksgiving (2003)
  • Friends S10E09: Эпизод с суррогатной матерью / The One with the Birth Mother (2004)
  • Friends S10E10: Эпизод, в котором Чендлер пойман / The One Where Chandler Gets Caught (2004)
  • Friends S10E11: Эпизод, где стриптизёр плачет / The One Where the Stripper Cries (2004)
  • Friends S10E12: Эпизод со свадьбой Фиби / The One with Phoebe's Wedding (2004)
  • Friends S10E13: Эпизод, где Джо разговаривает по-французски / The One Where Joey Speaks French (2004)
  • Friends S10E14: Эпизод с Принцессой Консуэлой / The One with Princess Consuela (2004)
  • Friends S10E15: Эпизод, в котором Эстель умирает / The One Where Estelle Dies (2004)
  • Friends S10E16: Эпизод с прощальной вечеринкой Рэйчел / The One with Rachel's Going Away Party (2004)
  • Friends S10E17-18: Финальный эпизод, часть 1 и 2 / The Last One: Part 1 & 2 (2004)

MediaInfo

Код:
General
Unique ID                                : 192569094627037088391930410973013484857 (0x90DF7564E1967D3AAA6BF904E3542539)
Complete name                            : Friends.S10E01.The.One.After.Joey.and.Rachel.Kiss.mkv
Format                                   : Matroska
Format version                           : Version 4 / Version 2
File size                                : 582 MiB
Duration                                 : 29mn 19s
Overall bit rate                         : 2 776 Kbps
Encoded date                             : UTC 2014-09-21 06:14:29
Writing application                      : mkvmerge v7.0.0 ('Where We Going') 32bit built on Jun  9 2014 15:08:34
Writing library                          : libebml v1.3.0 + libmatroska v1.4.1
DURATION                                 : 00:29:00.113000000
NUMBER_OF_FRAMES                         : 441
NUMBER_OF_BYTES                          : 17184
_STATISTICS_WRITING_APP                  : mkvmerge v7.0.0 ('Where We Going') 32bit built on Jun  9 2014 15:08:34
_STATISTICS_WRITING_DATE_UTC             : 2014-09-21 06:14:29
_STATISTICS_TAGS                         : BPS DURATION NUMBER_OF_FRAMES NUMBER_OF_BYTES
Video
ID                                       : 1
Format                                   : AVC
Format/Info                              : Advanced Video Codec
Format profile                           : High@L4.1
Format settings, CABAC                   : Yes
Format settings, ReFrames                : 9 frames
Codec ID                                 : V_MPEG4/ISO/AVC
Duration                                 : 29mn 19s
Bit rate                                 : 2 200 Kbps
Width                                    : 1 024 pixels
Height                                   : 576 pixels
Display aspect ratio                     : 16:9
Frame rate mode                          : Constant
Frame rate                               : 23.976 fps
Color space                              : YUV
Chroma subsampling                       : 4:2:0
Bit depth                                : 8 bits
Scan type                                : Progressive
Bits/(Pixel*Frame)                       : 0.156
Stream size                              : 450 MiB (77%)
Title                                    : Friends S10E01: Эпизод после поцелуя Джо и Рейчел / The One After Joey and Rachel Kiss (2003) BDRip-AVC by Gellard
Writing library                          : x264 core 142 r2431 ac76440
Encoding settings                        : cabac=1 / ref=9 / deblock=1:-2:-1 / analyse=0x3:0x113 / me=umh / subme=11 / psy=1 / psy_rd=1.10:0.10 / mixed_ref=1 / me_range=32 / chroma_me=1 / trellis=2 / 8x8dct=1 / cqm=0 / deadzone=21,11 / fast_pskip=1 / chroma_qp_offset=-5 / threads=9 / lookahead_threads=1 / sliced_threads=0 / nr=0 / decimate=1 / interlaced=0 / bluray_compat=0 / constrained_intra=0 / bframes=9 / b_pyramid=2 / b_adapt=2 / b_bias=0 / direct=1 / weightb=1 / open_gop=0 / weightp=2 / keyint=240 / keyint_min=23 / scenecut=40 / intra_refresh=0 / rc_lookahead=40 / rc=2pass / mbtree=0 / bitrate=2200 / ratetol=1.0 / qcomp=0.60 / qpmin=0 / qpmax=69 / qpstep=4 / cplxblur=20.0 / qblur=0.5 / vbv_maxrate=50000 / vbv_bufsize=62500 / nal_hrd=none / filler=0 / ip_ratio=1.40 / pb_ratio=1.30 / aq=1:0.90
Language                                 : English
Default                                  : Yes
Forced                                   : No
DURATION                                 : 00:29:18.841000000
NUMBER_OF_FRAMES                         : 42170
NUMBER_OF_BYTES                          : 483457764
_STATISTICS_WRITING_APP                  : mkvmerge v7.0.0 ('Where We Going') 32bit built on Jun  9 2014 15:08:34
_STATISTICS_WRITING_DATE_UTC             : 2014-09-21 06:14:29
_STATISTICS_TAGS                         : BPS DURATION NUMBER_OF_FRAMES NUMBER_OF_BYTES
Audio #1
ID                                       : 2
Format                                   : AC-3
Format/Info                              : Audio Coding 3
Mode extension                           : CM (complete main)
Format settings, Endianness              : Big
Codec ID                                 : A_AC3
Duration                                 : 29mn 19s
Bit rate mode                            : Constant
Bit rate                                 : 192 Kbps
Channel count                            : 2 channels
Channel positions                        : Front: L R
Sampling rate                            : 48.0 KHz
Bit depth                                : 16 bits
Compression mode                         : Lossy
Stream size                              : 40.3 MiB (7%)
Title                                    : Многоголосый (РТР) AC3 2.0 @ 192 kbps
Language                                 : Russian
Default                                  : Yes
Forced                                   : No
Audio #2
ID                                       : 3
Format                                   : AC-3
Format/Info                              : Audio Coding 3
Mode extension                           : CM (complete main)
Format settings, Endianness              : Big
Codec ID                                 : A_AC3
Duration                                 : 29mn 19s
Bit rate mode                            : Constant
Bit rate                                 : 384 Kbps
Channel count                            : 6 channels
Channel positions                        : Front: L C R, Side: L R, LFE
Sampling rate                            : 48.0 KHz
Bit depth                                : 16 bits
Compression mode                         : Lossy
Stream size                              : 80.6 MiB (14%)
Title                                    : Оригинал AC3 5.1 @ 384 kbps
Language                                 : English
Default                                  : No
Forced                                   : No
Text #1
ID                                       : 4
Format                                   : UTF-8
Codec ID                                 : S_TEXT/UTF8
Codec ID/Info                            : UTF-8 Plain Text
Title                                    : Русские
Language                                 : Russian
Default                                  : No
Forced                                   : No
Text #2
ID                                       : 5
Format                                   : UTF-8
Codec ID                                 : S_TEXT/UTF8
Codec ID/Info                            : UTF-8 Plain Text
Title                                    : Английские (SDH)
Language                                 : English
Default                                  : No
Forced                                   : No
Menu
00:00:00.000                             : en:00:00:00.000
00:02:54.883                             : en:00:02:54.883
00:11:19.137                             : en:00:11:19.137
00:18:53.049                             : en:00:18:53.049
00:28:34.212                             : en:00:28:34.212
Вне форума [Профиль] [ЛС]
Похожие темы
Форум Тема Автор Торрент Отв. Посл. сообщение
./templates/default/images/folder_dl.gif Мультсериалы Робокар Поли и его друзья / Robocar Poli ( Lee Dong-woo)[2011-2014.,Детский, Анимационный] WEB-DLRip, SATRip (1-3 сезоны, серии 1-78 из 78 + 26) sashau
1 | 0

0 | 1270

28

2014-12-23 15:59
sashau Последнее
Показать сообщения:    
Ответить на тему

Текущее время: Сегодня 18:14

Часовой пояс: GMT + 3



Вы не можете начинать темы
Вы не можете отвечать на сообщения
Вы не можете редактировать свои сообщения
Вы не можете удалять свои сообщения
Вы не можете голосовать в опросах
Вы не можете прикреплять файлы к сообщениям
Вы не можете скачивать файлы