Сегодня идет свободное скачивание без начисления Download

Кей и Пили / Key and Peele / Сезон: 5 / Серии: 2 из 11 (Питер Атенсио) [2015, комедия, скетч, WEB-DLRip] VO (Кураж-Бамбей) + Original

Ответить на тему
 
Автор
Сообщение

Omen ®

Стаж: 5 лет 9 месяцев

Сообщений: 184433

Торрент-статистика

Пост 23-Июл-2016 01:00

[Цитировать]

Кей и Пил / Key and Peele
Год выпуска: 2015
Страна: США
Жанр: комедия, скетч
Продолжительность: ~00:22:00
Перевод: Профессиональный (двухголосый закадровый) Кураж-Бамбей по заказу телеканала Paramount Comedy
Режиссёр: Питер Атенсио
В ролях: Кигэн Майкл Ки, Джордан Пил, Джордан Блэк, Роб Делани, Колтон Данн, Джошуа Фанк, Джес Уайтакер, Рон Артест, Марк Мозес, Мэл Кауэн
Описание: Кей и Пили являются участниками американских скетч комедий и тв шоу. Каждый эпизод состоит из предварителього живого выступления на сцене, и скетча (короткий видеоэпизод).
Скетчи охватывают различные социальные темы, зачастую затрагивая афроамериканскую культуру и межрасовые отношения.
В ролях Киган Майкл Кей и Джордан Пили, бывшие актеры MAD TV.
Доп. информация:
Звук предоставил: Beer kolesik Drinkers и #Antisnl#
Подготовка видео: TaLi4
Что-то там с аудио делал: "халтурщик" TaLi4
Сэмпл: http://multi-up.com/1110983 | https://cloud.mail.ru/public/UzN8/H4xQkzF34
Качество: WEB-DLRip
Формат: AVI
Видео: 720x400 (1.80:1), 23.976 fps, XviD build 64 ~1270 kbps avg, 0.184 bit/pixel
Аудио #1: 48 kHz, MPEG Layer 3, 2 ch, ~128.00 kbps avg | Кураж-Бамбей |
Аудио #2: 48 kHz, MPEG Layer 3, 2 ch, ~128.00 kbps avg | Оригинал |
Субтитры: отсутствуют

MediaInfo

General
Complete name : C:\Users\Администратор\Desktop\Раздачи\Key and Peele Season 5 ParamountComedy\key.and.peele.s05e02.web-dlrip.rus.eng.paramount.comedy.avi
Format : AVI
Format/Info : Audio Video Interleave
File size : 235 MiB
Duration : 21mn 23s
Overall bit rate : 1 540 Kbps
Writing application : VirtualDubMod 1.5.10.3 | www.virtualdub-fr.org || (build 2550/release)
Writing library : VirtualDubMod build 2550/release
Video
ID : 0
Format : MPEG-4 Visual
Format profile : Advanced Simple@L5
Format settings, BVOP : 2
Format settings, QPel : No
Format settings, GMC : No warppoints
Format settings, Matrix : Default (H.263)
Codec ID : XVID
Codec ID/Hint : XviD
Duration : 21mn 23s
Bit rate : 1 270 Kbps
Width : 720 pixels
Height : 400 pixels
Display aspect ratio : 16:9
Frame rate : 23.976 fps
Color space : YUV
Chroma subsampling : 4:2:0
Bit depth : 8 bits
Scan type : Progressive
Compression mode : Lossy
Bits/(Pixel*Frame) : 0.184
Stream size : 194 MiB (82%)
Writing library : XviD 64
Audio #1
ID : 1
Format : MPEG Audio
Format version : Version 1
Format profile : Layer 3
Mode : Joint stereo
Mode extension : MS Stereo
Codec ID : 55
Codec ID/Hint : MP3
Duration : 21mn 23s
Bit rate mode : Constant
Bit rate : 128 Kbps
Channel(s) : 2 channels
Sampling rate : 48.0 KHz
Compression mode : Lossy
Stream size : 19.6 MiB (8%)
Alignment : Aligned on interleaves
Interleave, duration : 42 ms (1.00 video frame)
Interleave, preload duratio : 504 ms
Audio #2
ID : 2
Format : MPEG Audio
Format version : Version 1
Format profile : Layer 3
Mode : Joint stereo
Mode extension : MS Stereo
Codec ID : 55
Codec ID/Hint : MP3
Duration : 21mn 22s
Bit rate mode : Constant
Bit rate : 128 Kbps
Channel(s) : 2 channels
Sampling rate : 48.0 KHz
Compression mode : Lossy
Stream size : 19.6 MiB (8%)
Alignment : Aligned on interleaves
Interleave, duration : 42 ms (1.00 video frame)
Interleave, preload duratio : 504 ms
Writing library : LAME3.99r
Encoding settings : -m j -V 4 -q 0 -lowpass 17 -b 128

Скриншоты

Внимание! Раздача ведётся путём добавления новых серий

Внимание! Раздача ведётся путём добавления новых серий; при каждом добавлении создётся новый торрент. Чтобы начать докачку новой серии, пользователям необходимо сделать следующее:
(1) остановить скачивание,
(2) удалить старый торрент у себя из клиента (старые серии удалять не надо),
(3) скачать новый торрент и запустить его у себя в клиенте вместо старого, при этом указать клиенту путь в старую папку куда и должно происходить скачивание новых серий.
Ваш клиент при этом должен произвести хеширование (проверку) старой папки (если не производит сам - помогите ему сделать это), и будет докачивать только те серии которых у вас ещё нет. Старые серии при этом не удаляются, а продолжают раздаваться!
Eсли вы уже удалили старые серии, то предотвратить повторную закачку старых серий можно, отжав галочку в соответсвующих местах при запуске нового торрента. По возможности, желательно не удалять старые серии как можно дольше чтобы релизёр не столько продолжал раздавать старые серии, а смог сконцентрироваться на новых.
Вне форума [Профиль] [ЛС]
Показать сообщения:    
Ответить на тему

Текущее время: Сегодня 17:29

Часовой пояс: GMT + 3



Вы не можете начинать темы
Вы не можете отвечать на сообщения
Вы не можете редактировать свои сообщения
Вы не можете удалять свои сообщения
Вы не можете голосовать в опросах
Вы не можете прикреплять файлы к сообщениям
Вы не можете скачивать файлы