Сегодня идет свободное скачивание без начисления Download

Загадочные события / Крайне странные события / Очень странные дела / Stranger Things / Сезон: 1 / Серии: 1-8 из 8 (Мэтт Даффер, Росс Даффер, Шон Леви) [2016, eжасы, триллер, драма, WEBRip 720p] DVO (Gears Media) + Original

Ответить на тему
 
Автор
Сообщение

Omen ®

Стаж: 5 лет 9 месяцев

Сообщений: 184433

Торрент-статистика

Пост 23-Июл-2016 01:00

[Цитировать]

Загадочные события / Крайне странные события / Очень странные дела / Stranger Things
Год выпуска: 2016
Страна: США
Жанр: Ужасы, триллер, драма
Продолжительность: ~ 50 мин
Перевод: Профессиональный (двухголосый закадровый)[Gears Media]
Режиссёр: Мэтт Даффер, Росс Даффер, Шон Леви
В ролях: Вайнона Райдер, Дэвид Харбор, Финн Вулфард, Милли Бобби Браун, Гейтен Матараццо, Калеб МакЛафлин, Ной Шнапп, Наталия Дайер, Чарли Хитон, Мэттью Модайн и т.д
Описание:
Главное действие сериала разворачивается в 80-х годах на территории тихого провинциального города. Благоприятное течение местной жизни нарушает загадочное исчезновение подростка по имени Уилл. Выяснить обстоятельства дела, полны решимости родные мальчика и местный шериф. Также события затрагивают лучшего друга Уилла — Майка. Он начинает собственное расследование. Теперь Майк уверен, что близок к разгадке, однако для этого ему предстоит оказаться в эпицентре ожесточенной битвы потусторонних сил.
Сэмпл: http://multi-up.com/1110928
Качество: WEBRip 720p
Формат: MKV
Видео: x264, 1280x640 (16:9), 23,976 fps, ~4500 kbps
Аудио1: Russian, AC3, 48 kHz, 2 ch, 384 kbps
Аудио2: English, AC3, 48 kHz, 6 ch, 384 kbps

MediaInfo

Format : Matroska
Format version : Version 4 / Version 2
File size : 1.64 GiB
Duration : 48mn 16s
Overall bit rate : 4 875 Kbps
Encoded date : UTC 2016-07-21 18:49:38
Writing application : mkvmerge v9.2.0 ('Photograph') 64bit
Writing library : libebml v1.3.3 + libmatroska v1.4.4
Video
ID : 1
Format : AVC
Format/Info : Advanced Video Codec
Format profile : High@L4.1
Format settings, CABAC : Yes
Format settings, ReFrames : 10 frames
Codec ID : V_MPEG4/ISO/AVC
Duration : 47mn 30s
Bit rate : 4 170 Kbps
Width : 1 280 pixels
Height : 640 pixels
Display aspect ratio : 2.000
Frame rate mode : Constant
Frame rate : 23.976 (24000/1001) fps
Color space : YUV
Chroma subsampling : 4:2:0
Bit depth : 8 bits
Scan type : Progressive
Bits/(Pixel*Frame) : 0.212
Stream size : 1.38 GiB (84%)
Writing library : x264 core 144 r2525 40bb568
Encoding settings : cabac=1 / ref=10 / deblock=1:-3:-3 / analyse=0x3:0x133 / me=umh / subme=10 / psy=1 / psy_rd=1.00:0.00 / mixed_ref=1 / me_range=48 / chroma_me=1 / trellis=2 / 8x8dct=1 / cqm=0 / deadzone=21,11 / fast_pskip=1 / chroma_qp_offset=-2 / threads=12 / lookahead_threads=2 / sliced_threads=0 / nr=0 / decimate=1 / interlaced=0 / bluray_compat=0 / constrained_intra=0 / bframes=8 / b_pyramid=2 / b_adapt=2 / b_bias=0 / direct=3 / weightb=1 / open_gop=0 / weightp=2 / keyint=250 / keyint_min=23 / scenecut=40 / intra_refresh=0 / rc=crf / mbtree=0 / crf=18.0 / qcomp=0.60 / qpmin=0 / qpmax=69 / qpstep=4 / ip_ratio=1.30 / pb_ratio=1.20 / aq=3:0.80
Language : English
Default : Yes
Forced : No
Audio #1
ID : 2
Format : AC-3
Format/Info : Audio Coding 3
Mode extension : CM (complete main)
Format settings, Endianness : Big
Codec ID : A_AC3
Duration : 48mn 16s
Bit rate mode : Constant
Bit rate : 384 Kbps
Channel(s) : 2 channels
Channel positions : Front: L R
Sampling rate : 48.0 KHz
Frame rate : 31.250 fps (1536 spf)
Compression mode : Lossy
Stream size : 133 MiB (8%)
Title : Gears Media
Language : Russian
Default : Yes
Forced : Yes
Audio #2
ID : 3
Format : AC-3
Format/Info : Audio Coding 3
Mode extension : CM (complete main)
Format settings, Endianness : Big
Codec ID : A_AC3
Duration : 48mn 16s
Bit rate mode : Constant
Bit rate : 384 Kbps
Channel(s) : 6 channels
Channel positions : Front: L C R, Side: L R, LFE
Sampling rate : 48.0 KHz
Frame rate : 31.250 fps (1536 spf)
Compression mode : Lossy
Stream size : 133 MiB (8%)
Language : English
Default : No
Forced : No

Скриншоты

Внимание! Раздача ведётся путём добавления новых серий

Внимание! Раздача ведётся путём добавления новых серий; при каждом добавлении создётся новый торрент. Чтобы начать докачку новой серии, пользователям необходимо сделать следующее:
(1) остановить скачивание,
(2) удалить старый торрент у себя из клиента (старые серии удалять не надо),
(3) скачать новый торрент и запустить его у себя в клиенте вместо старого, при этом указать клиенту путь в старую папку куда и должно происходить скачивание новых серий.
Ваш клиент при этом должен произвести хеширование (проверку) старой папки (если не производит сам - помогите ему сделать это), и будет докачивать только те серии которых у вас ещё нет. Старые серии при этом не удаляются, а продолжают раздаваться!
Eсли вы уже удалили старые серии, то предотвратить повторную закачку старых серий можно, отжав галочку в соответсвующих местах при запуске нового торрента. По возможности, желательно не удалять старые серии как можно дольше чтобы релизёр не столько продолжал раздавать старые серии, а смог сконцентрироваться на новых.
Вне форума [Профиль] [ЛС]
Похожие темы
Форум Тема Автор Торрент Отв. Посл. сообщение
./templates/default/images/folder_dl.gif Приключения и квесты Mystery Trackers: Blackrow\'s Secret Collector\'s Edition / Охотники за тайнами. Загадка рода Блэкроу. Коллекционное издание [P] [RUS / ENG] (2014) Omen
6 | 1

0 | 1323

22

2015-06-06 00:09
Omen Последнее
Показать сообщения:    
Ответить на тему

Текущее время: Сегодня 16:41

Часовой пояс: GMT + 3



Вы не можете начинать темы
Вы не можете отвечать на сообщения
Вы не можете редактировать свои сообщения
Вы не можете удалять свои сообщения
Вы не можете голосовать в опросах
Вы не можете прикреплять файлы к сообщениям
Вы не можете скачивать файлы