Сегодня идет свободное скачивание без начисления Download

Красный орёл / Águila Roja / Сезон: 3 / Серии: 1-5 из 13 (Марко А. Кастильо / Marco A. Castillo, Мигель Алькантуд / Miguel Alcantud, Марк Вихиль / Marc Vigil) [2010, приключения, HDTV 1080i] MVO

Ответить на тему
 
Автор
Сообщение

Omen ®

Стаж: 5 лет 9 месяцев

Сообщений: 184393

Торрент-статистика

Пост 22-Июл-2016 01:01

[Цитировать]

Красный орёл / Águila Roja3 сезон: Серии 1-5 из 13 Год выпуска: 2010
Страна: Испания
Производство: Globo Media S.A.
Жанр: приключения
Продолжительность: ~ 01:20:00 сери
Перевод: Профессиональный (многоголосый закадровый)
Режиссёр: Марко А. Кастильо / Marco A. Castillo , Мигель Алькантуд / Miguel Alcantud , Марк Вихиль / Marc Vigil
В ролях: Давид Ханер, Хавьер Гутьеррес, Гильермо Кампра, Сантьяго Молеро, Франсис Лоренсо, Инма Куэста, Патрик Криаду, Мирйам Гальего, Пепа Аниорте, Elisa Mouliaá
Описание: XVII столетие. Золотой век испанской истории. У обыкновенного школьного учителя Гонсало убивают жену. Чтобы найти убийц он вынужден вести двойную жизнь, превращаясь ночами в неуловимого мстителя…
Доп. информация: Запись со спутника с Кинопоказа HD-2
Сэмпл:
Качество: HDTV 1080i
Контейнер: TS
Видео: AVC/H.264, PAL, 1920х1080 (16:9), 25 fps, 9134 Кбит/сек
Аудио 1: русский, MP2, 48000 Hz, 192 Кбит/сек, 2 ch
Аудио 2: русский, AC3, 48000 Hz, 448 Кбит/сек, 6 ch
Субтитры: отсутствуют

MediaInfo

Общее
Идентификатор : 1 (0x1)
Полное имя : G:\Раздать\Красный орёл (3 сезон)\Красный орёл (01 серия).ts
Формат : MPEG-TS
Размер файла : 6,14 Гбайт
Продолжительность : 1 ч. 25 м.
Режим общего битрейта : Переменный
Общий поток : 10,3 Мбит/сек
Видео
Идентификатор : 3031 (0xBD7)
Идентификатор меню : 1 (0x1)
Формат : AVC
Формат/Информация : Advanced Video Codec
Профиль формата : Main@L4.0
Параметр CABAC формата : Да
Параметр ReFrames формата : 4 кадра
Идентификатор кодека : 27
Продолжительность : 1 ч. 25 м.
Битрейт : 9134 Кбит/сек
Ширина : 1920 пикселей
Высота : 1080 пикселей
Соотношение сторон : 16:9
Частота кадров : 25,000 кадров/сек
Цветовое пространство : YUV
Субдискретизация насыщенности : 4:2:0
Битовая глубина : 8 бит
Тип развёртки : Чересстрочная
Порядок развёртки : Верхнее поле первое
Бит/(Пиксели*Кадры) : 0.176
Размер потока : 5,45 Гбайт (89%)
Основные цвета : BT.709
Характеристики трансфера : BT.709
Коэффициенты матрицы : BT.709
colour_range : Limited
Аудио #1
Идентификатор : 3032 (0xBD8)
Идентификатор меню : 1 (0x1)
Формат : MPEG Audio
Версия формата : Version 1
Профиль формата : Layer 2
Идентификатор кодека : 3
Продолжительность : 1 ч. 25 м.
Вид битрейта : Постоянный
Битрейт : 192 Кбит/сек
Каналы : 2 канала
Частота : 48,0 КГц
Метод сжатия : С потерями
Размер потока : 117 Мбайт (2%)
Язык : Russian
Аудио #2
Идентификатор : 3033 (0xBD9)
Идентификатор меню : 1 (0x1)
Формат : AC-3
Формат/Информация : Audio Coding 3
Расширение режима : CM (complete main)
Параметр Endianness формата : Big
Идентификатор кодека : 6
Продолжительность : 1 ч. 25 м.
Вид битрейта : Постоянный
Битрейт : 448 Кбит/сек
Каналы : 6 каналов
Расположение каналов : Front: L C R, Side: L R, LFE
Частота : 48,0 КГц
Битовая глубина : 16 бит
Метод сжатия : С потерями
Размер потока : 274 Мбайт (4%)
Язык : Russian

Скриншоты

Вне форума [Профиль] [ЛС]
Похожие темы
Форум Тема Автор Торрент Отв. Посл. сообщение
./templates/default/images/folder_dl.gif Зарубежное кино Красная шапочка / Red Riding Hood (Кэтрин Хардвик / Catherine Hardwicke) [2011, США, Канада, ужасы, фэнтези, триллер, детектив, BDRip 1080p] Dub + Original + Comm + subs Omen
1 | 0

0 | 906

10

2013-05-01 01:36
Omen Последнее
Показать сообщения:    
Ответить на тему

Текущее время: Сегодня 20:48

Часовой пояс: GMT + 3



Вы не можете начинать темы
Вы не можете отвечать на сообщения
Вы не можете редактировать свои сообщения
Вы не можете удалять свои сообщения
Вы не можете голосовать в опросах
Вы не можете прикреплять файлы к сообщениям
Вы не можете скачивать файлы