Сегодня идет свободное скачивание без начисления Download

Оставленные / Остатки / The Leftovers / Сезон: 1 / Серии: 1-10 из 10 (Мими Ледер, Питер Берг, Мишель Максвелл МакЛарен) [2014, Фэнтези, драма, детектив, HDTVRip 400p] MVO (Amedia) + Original + Subs (Rus)

Ответить на тему
 
Автор
Сообщение

Omen ®

Стаж: 5 лет 7 месяцев

Сообщений: 185412

Торрент-статистика

Пост 21-Июл-2016 01:01

[Цитировать]

Остатки | Оставленные | The Leftovers- Год выпуска: 2014
Страна: США
Жанр: Фэнтези, драма, детектив
Продолжительность: 00:55:00
Перевод: Профессиональный (многоголосый закадровый) Amedia--Режиссёр: Мими Ледер, Питер Берг, Мишель Максвелл МакЛарен
В ролях: Лив Тайлер, Фрэнк Хартс, Майкл Гэстон, Джастин Теру, Кэрри Кун, Маргарет Куэлли, Энни Цянь, Эми Бреннеман, Кристофер Экклстон, Энн Дауд и др.-Описание: Внезапно 2% всех землян таинственно исчезают. Оставшимся приходится как-то жить дальше. Во втором сезоне герои переезжают из пригорода Нью-Йорка в Техас, в город под названием «Чудо», которого удивительным образом не коснулось исчезновение людей. Город становится новой Меккой для паломников со всей страны, из-за чего его обносят забором и дают посетителям только однодневные пропуски. Но имидж райского сада очень скоро будет омрачен очередным таинственным исчезновением...--Рип: ЛП
Работа со звуком: BS666, Messafan
--Сэмпл: http://multi-up.com/1110743-Качество: HDTVRip 400p
Формат: AVI
Видео: XVID, 720x400 (16:9), 23.976 fps, ~2000 kbps avg, 0.29 bit/pixel
Аудио Rus: AC3 Dolby Digital, 48.0 KHz, 6 channels, ~384 kbps
Аудио Eng: AC3 Dolby Digital, 48.0 KHz, 6 channels, ~384 kbps
Субтитры: Rus

MediaInfo

General
Complete name : E:\Остатки (Сезон 1) Amedia\The.Leftovers.s01e01.rus.eng.CasStudio.avi
Format : AVI
Format/Info : Audio Video Interleave
File size : 1.42 GiB
Duration : 1h 13mn
Overall bit rate : 2 782 Kbps
Writing application : VirtualDubMod 1.5.10.2 (build 2540/release)
Writing library : VirtualDubMod build 2540/release
Video
ID : 0
Format : MPEG-4 Visual
Format profile : Advanced Simple@L5
Format settings, BVOP : 1
Format settings, QPel : No
Format settings, GMC : No warppoints
Format settings, Matrix : Default (MPEG)
Codec ID : XVID
Codec ID/Hint : XviD
Duration : 1h 13mn
Bit rate : 2 000 Kbps
Width : 720 pixels
Height : 400 pixels
Display aspect ratio : 16:9
Frame rate : 23.976 (23976/1000) fps
Color space : YUV
Chroma subsampling : 4:2:0
Bit depth : 8 bits
Scan type : Progressive
Compression mode : Lossy
Bits/(Pixel*Frame) : 0.290
Stream size : 1.02 GiB (72%)
Writing library : XviD 65
Audio #1
ID : 1
Format : AC-3
Format/Info : Audio Coding 3
Mode extension : CM (complete main)
Format settings, Endianness : Big
Codec ID : 2000
Duration : 1h 13mn
Bit rate mode : Constant
Bit rate : 384 Kbps
Channel(s) : 6 channels
Channel positions : Front: L C R, Side: L R, LFE
Sampling rate : 48.0 KHz
Frame rate : 31.250 fps (1536 spf)
Compression mode : Lossy
Stream size : 201 MiB (14%)
Alignment : Split accross interleaves
Interleave, duration : 42 ms (1.00 video frame)
Interleave, preload duratio : 500 ms
Audio #2
ID : 2
Format : AC-3
Format/Info : Audio Coding 3
Mode extension : CM (complete main)
Format settings, Endianness : Big
Codec ID : 2000
Duration : 1h 13mn
Bit rate mode : Constant
Bit rate : 384 Kbps
Channel(s) : 6 channels
Channel positions : Front: L C R, Side: L R, LFE
Sampling rate : 48.0 KHz
Frame rate : 31.250 fps (1536 spf)
Compression mode : Lossy
Stream size : 201 MiB (14%)
Alignment : Split accross interleaves
Interleave, duration : 42 ms (1.00 video frame)
Interleave, preload duratio : 500 ms

Скриншоты

-
Вне форума [Профиль] [ЛС]
Показать сообщения:    
Ответить на тему

Текущее время: Сегодня 19:44

Часовой пояс: GMT + 3



Вы не можете начинать темы
Вы не можете отвечать на сообщения
Вы не можете редактировать свои сообщения
Вы не можете удалять свои сообщения
Вы не можете голосовать в опросах
Вы не можете прикреплять файлы к сообщениям
Вы не можете скачивать файлы