Сегодня идет свободное скачивание без начисления Download

Побег из тюрьмы / Rebel Highway "Jailbreakers" / Сезон: 1 / Серии: 8 из 10 (Уильям Фридкин / William Friedkin) [1994, Драма, DVDRip] AVO (Александр Кашкин (Первомайский)) + Original Eng

Ответить на тему
 
Автор
Сообщение

Omen ®

Стаж: 5 лет 10 месяцев

Сообщений: 184329

Торрент-статистика

Пост 19-Июл-2016 01:01

[Цитировать]

Побег из тюрьмы / Rebel Highway "Jailbreakers"
Год выпуска: 1994
Страна: США
Жанр: Драма
Продолжительность: 01:12:22
Перевод: Авторский (одноголосый закадровый) Александр Кашкин (Первомайский)
Оригинальная аудиодорожка: английский
Режиссёр: Уильям Фридкин / William Friedkin
В ролях: Шэннен Доэрти, Эдриенн Барбо, Эдриан Броуди, Винс Эдвардс, Джордж Гердес, Дэна Баррон, Крис Конрад, Шон Уэйлен, Талберт Мортон
Описание: Молодая девчонка влюбилась в отчаянного парня, красивого, но с криминальными наклонностями. Охреневшая от скуки в маленьком городке с правильными родителями, она практически спровоцировала его на ограбление ювелирного магазина, после чего он сел в тюрьму, а ее родители увезли в другой город. Сбежав из тюрьмы, он совершает новое преступление и хочет увезти ее в Мексику — она всегда хотела попасть в какую-нибудь экзотическую страну. Но после того, как он убивает полицейского, к ней возвращается рассудок. Однако, уже поздно что-то менять…
Доп. информация: Дорожка с А. Кашкиным синхронизирована и наложена ale_x2008 при помощи Sony Vegas и VirtualDubMod.
За оцифрованную с VHS дорожку благодарим - d_rocker

Сэмпл: https://yadi.sk/i/fQ54c0e0tQvK4
Качество: DVDRip
Формат: AVI
Видео: XviD build 46, 720x544 (1.32:1), 25.00 fps, 2187 kbps avg, 0.22 bit/pixel
Аудио: 48 kHz, AC3 Dolby Digital, 2/0 (L,R) ch, ~192 kbps
Аудио 2: 48 kHz, AC3 Dolby Digital, 2/0 (L,R) ch, ~256 kbps Eng
Субтитры: отсутствуют

Список серий

эпизод 8 (Гонщики Jailbreakers)

MediaInfo

Побег из тюрьмы - Jailbreakers (by ale_x2008).avi
Format : AVI
Format/Info : Audio Video Interleave
File size : 1.33 GiB
Duration : 1h 11mn
Overall bit rate : 2 651 Kbps
Movie name : Побег из тюрьмы - Jailbreakers (by ale_x2008)
Director : by ale_x2008
Writing application : VirtualDubMod 1.5.10.2 (build 2540/release)
Copyright : Edich2
Comment : /*spam*/
Video
ID : 0
Format : MPEG-4 Visual
Format profile : Advanced Simple@L5
Format settings, BVOP : No
Format settings, QPel : No
Format settings, GMC : No warppoints
Format settings, Matrix : Default (H.263)
Codec ID : XVID
Codec ID/Hint : XviD
Duration : 1h 11mn
Bit rate : 2 188 Kbps
Width : 720 pixels
Height : 544 pixels
Display aspect ratio : 4:3
Frame rate : 25.000 fps
Color space : YUV
Chroma subsampling : 4:2:0
Bit depth : 8 bits
Scan type : Progressive
Compression mode : Lossy
Bits/(Pixel*Frame) : 0.223
Stream size : 1.10 GiB (83%)
Writing library : XviD 1.1.2 (UTC 2006-11-01)
Audio #1
ID : 1
Format : AC-3
Format/Info : Audio Coding 3
Mode extension : CM (complete main)
Format settings, Endianness : Big
Codec ID : 2000
Duration : 1h 11mn
Bit rate mode : Constant
Bit rate : 192 Kbps
Channel(s) : 2 channels
Channel positions : Front: L R
Sampling rate : 48.0 KHz
Frame rate : 31.250 fps (1536 spf)
Compression mode : Lossy
Stream size : 98.7 MiB (7%)
Alignment : Split accross interleaves
Interleave, duration : 40 ms (1.00 video frame)
Interleave, preload duratio : 500 ms
Audio #2
ID : 2
Format : AC-3
Format/Info : Audio Coding 3
Mode extension : CM (complete main)
Format settings, Endianness : Big
Codec ID : 2000
Duration : 1h 11mn
Bit rate mode : Constant
Bit rate : 256 Kbps
Channel(s) : 2 channels
Channel positions : Front: L R
Sampling rate : 48.0 KHz
Frame rate : 31.250 fps (1536 spf)
Compression mode : Lossy
Stream size : 132 MiB (10%)
Alignment : Split accross interleaves
Interleave, duration : 40 ms (1.00 video frame)
Interleave, preload duratio : 500 ms

Скриншоты


Вне форума [Профиль] [ЛС]
Похожие темы
Форум Тема Автор Торрент Отв. Посл. сообщение
./templates/default/images/folder_dl.gif Новинки (HD|DVD|BD|WEB|TV|SAT|PDTV|-Rip) План побега 2 / Escape Plan 2: Hades (Стивен С. Миллер) [2018 г., боевик, триллер, BDRip-AVC] DUB (iTunes) | MVO (HDRezka Studio) Theseus
1 | 0

0 | 285

5

2018-08-14 16:30
Theseus Последнее
./templates/default/images/folder_dl.gif Новинки (BD|HDTV|DVD) План побега 2 / Escape Plan 2: Hades (Стивен С. Миллер) [2018 г., боевик, триллер, BDRip 720p] DUB (iTunes) Theseus
1 | 0

0 | 160

5

2018-08-14 16:35
Theseus Последнее
Показать сообщения:    
Ответить на тему

Текущее время: Сегодня 14:15

Часовой пояс: GMT + 3



Вы не можете начинать темы
Вы не можете отвечать на сообщения
Вы не можете редактировать свои сообщения
Вы не можете удалять свои сообщения
Вы не можете голосовать в опросах
Вы не можете прикреплять файлы к сообщениям
Вы не можете скачивать файлы