Сегодня идет свободное скачивание без начисления Download

Тайгер Лили: Жизнь четырех женщин / Четыре женщины и одна жизнь / Tiger Lily, 4 femmes dans la vie / Сезон: 1 / Серии: 1-6 из 6 (Бенуа Коэн / Benoit Cohen) [2013, драма, комедия, DVB] Original + Rus HardSub (Eclair Group)

Ответить на тему
 
Автор
Сообщение

Omen ®

Стаж: 5 лет 10 месяцев

Сообщений: 184329

Торрент-статистика

Пост 19-Июл-2016 01:00

[Цитировать]

Тайгер Лили: Жизнь четырех женщин
Tiger Lily, 4 femmes dans la vie- Год выпуска: 2013
Страна: Франция
Жанр: драма, комедия
Продолжительность: 00:45:00Перевод: Субтитры (перевод О.Першиной, М.Кузиной, К.Семенюк, Éclair Group)
Режиссёр: Бенуа Коэн / Benoît Cohen
В ролях: Лио / Lio (Muriel), Флоранс Томассен / Florence Thomassin (Rita), Камиль Жапи / Camille Japy (Rachel), Ариан Сегюйон / Ariane Séguillon (Stéphane), Фабио Зенони / Fabio Zenoni (Pierre), Филипп Эриссон / Philippe Hérisson (Alexandre), Франсуа Сивиль / François Civil (Ziggy)
Описание: "Тигровая лилия" – это название рок-группы из четырех девушек, родившихся в конце 60-х. Но Рита, Рашель, Мюриель и Стефан уже давно зачехлили свои гитары, ведь сегодня, по прошествии лет, кто-то из них состоит в браке, а кто-то в одиночку растит детей. На самом деле для них ничего не изменилось, они по-прежнему энергичны и верят, что и в 45 лет все возможно: отправиться в путешествие, сменить работу, забеременеть, соблазнить, восстановить семью и на полную катушку дать волю своим чувствам…
Доп. информация: Hot Bird (13.0°E) TV5MONDE Europe DVB-S
Награда: приз за лучший сериал Festival de la fiction TV de la Rochelle 2012.

Качество: DVB
Формат: MKV
Видео: MPEG Video 2, 720x576@1024x576 (16:9), 25 fps, ~2907 kbps avg, 0.280 bit/pixel
Аудио: MPEG Audio 2, 2 ch, 48 kHz, 192 kbps - французский
Субтитры: русские, немецкие, нидерландские, румынские - prerendered (IDX+SUB); английские, французские - softsub (SRT)

Список серий

Эпизод 1: К лучшему или к худшему / Pour le meilleur et pour le pire (2012)Эпизод 2: Семейные узы / Sacrée famille (2012)Эпизод 3: Мои несбыточные желания / Mes désirs font désordre (2012)Эпизод 4: Жизнь - это сон / La vie est un rêve (2012)Эпизод 5: Тигр или Лилия? / Tiger ou Lily? (2012)Эпизод 6: Сан-Франциско / San Francisco (2012)

MediaInfo

GeneralUnique ID : 244329484373897699542099158747692384546 (0xB7D025A3722E1A4294DAE3587A2BC122)Complete name : [apreder]Tiger_Lily_4_femmes_dans_la_vie_s.1_ep.01(2012)DVB.mkvFormat : MatroskaFormat version : Version 2File size : 1.00 GiBDuration : 45 minOverall bit rate mode : VariableOverall bit rate : 3 162 kb/sMovie name : Tiger Lily, quatre femmes dans la vieReleased date : 2013-01-13Encoded date : UTC 2016-07-03 07:56:27Writing application : mkvmerge v9.2.0 ('Photograph') 64bitWriting library : libebml v1.3.3 + libmatroska v1.4.4Cover : YesAttachments : cover.jpg / small_cover.jpgACTOR : Lio, Florence Thomassin, Camille JapyDIRECTOR : Benoît CohenGENRE : Drama, ComedyIMDB : tt2673732KEYWORDS : rutracker.orgLAW_RATING : 16+SUMMARY : s.1, ep.01 Pour le meilleur et pour le pire
VideoID : 1Format : MPEG VideoFormat version : Version 2Format profile : Main@MainFormat settings, BVOP : YesFormat settings, Matrix : CustomFormat settings, GOP : M=4, N=12Format settings, picture structure : FrameCodec ID : V_MPEG2Codec ID/Info : MPEG 1 or 2 VideoDuration : 45 minBit rate mode : VariableBit rate : 2 907 kb/sWidth : 720 pixelsHeight : 576 pixelsDisplay aspect ratio : 16:9Frame rate mode : ConstantFrame rate : 25.000 FPSStandard : PALColor space : YUVChroma subsampling : 4:2:0Bit depth : 8 bitsScan type : InterlacedScan order : Top Field FirstCompression mode : LossyBits/(Pixel*Frame) : 0.280Time code of first frame : 00:00:00:00Time code source : Group of pictures headerGOP, Open/Closed : OpenGOP, Open/Closed of first frame : ClosedStream size : 944 MiB (92%)Default : YesForced : No
AudioID : 2Format : MPEG AudioFormat version : Version 1Format profile : Layer 2Mode : Joint stereoMode extension : Intensity Stereo + MS StereoCodec ID : A_MPEG/L2Codec ID/Hint : MP2Duration : 45 minBit rate mode : ConstantBit rate : 192 kb/sChannel(s) : 2 channelsSampling rate : 48.0 kHzCompression mode : LossyStream size : 62.4 MiB (6%)Language : FrenchDefault : YesForced : No
Text #1ID : 3Format : VobSubCodec ID : S_VOBSUBCodec ID/Info : Picture based subtitle format used on DVDsLanguage : RussianDefault : NoForced : No
Text #2ID : 4Format : UTF-8Codec ID : S_TEXT/UTF8Codec ID/Info : UTF-8 Plain TextLanguage : EnglishDefault : NoForced : No
Text #3ID : 5Format : UTF-8Codec ID : S_TEXT/UTF8Codec ID/Info : UTF-8 Plain TextLanguage : FrenchDefault : NoForced : No
Text #4ID : 6Format : VobSubCodec ID : S_VOBSUBCodec ID/Info : Picture based subtitle format used on DVDsLanguage : GermanDefault : NoForced : No
Text #5ID : 7Format : VobSubCodec ID : S_VOBSUBCodec ID/Info : Picture based subtitle format used on DVDsLanguage : DutchDefault : NoForced : No
Text #6ID : 8Format : VobSubCodec ID : S_VOBSUBCodec ID/Info : Picture based subtitle format used on DVDsLanguage : RomanianDefault : NoForced : No

Скриншоты


Резервные скриншоты


-

Внимание! Раздача ведётся путём добавления новых выпусков

Внимание! Раздача ведётся путём добавления новых выпусков; при каждом добавлении создаётся новый торрент. Чтобы начать докачку нового выпуска, пользователям необходимо сделать следующее:
(1) остановить скачивание,
(2) удалить старый торрент у себя из клиента (старые серии удалять не надо),
(3) скачать новый торрент и запустить его у себя в клиенте вместо старого, при этом указать клиенту путь в старую папку куда и должно происходить скачивание новых выпусков.
Ваш клиент при этом должен произвести хеширование (проверку) старой папки (если не производит сам - помогите ему сделать это). В результате он будет докачивать только те выпуски, которых у Вас ещё нет. Старые выпуски при этом не удаляются, а продолжают раздаваться!
Eсли Вы уже удалили старые выпуски, то предотвратить их повторную закачку можно, сняв галочки в соответствующих местах при запуске нового торрента. По возможности, желательно не удалять старые выпуски как можно дольше, чтобы релизёр не только продолжал раздавать старые выпуски, но и смог сконцентрироваться на новых.
-[1'064]
Вне форума [Профиль] [ЛС]
Показать сообщения:    
Ответить на тему

Текущее время: Сегодня 03:25

Часовой пояс: GMT + 3



Вы не можете начинать темы
Вы не можете отвечать на сообщения
Вы не можете редактировать свои сообщения
Вы не можете удалять свои сообщения
Вы не можете голосовать в опросах
Вы не можете прикреплять файлы к сообщениям
Вы не можете скачивать файлы