Сегодня идет свободное скачивание без начисления Download

Подпольная империя / Boardwalk Empire / Сезон: 3 / Серии: 1-12 из 12 (Тимоти Ван Паттен, Аллен Култер) [2012, драма, криминал, HDTVRip] VO (Юрий Сербин)

Ответить на тему
 
Автор
Сообщение

Omen ®

Стаж: 5 лет 9 месяцев

Сообщений: 184433

Торрент-статистика

Пост 19-Июл-2016 01:00

[Цитировать]

Подпольная империя / Boardwalk Empire
Год выпуска: 2012
Страна: США
Жанр: драма, криминал
Продолжительность: 55
Перевод: Профессиональный (одноголосый закадровый) Юрий Сербин
Режиссёр: Тимоти Ван Паттен, Аллен Култер
В ролях: Стив Бушеми, Майкл Питт, Тодд Фредерикс, Анна Катарина, Уильям Хилл, Джек Хьюстон, Николас Мартино, Пьер О'Фэррелл, Кен Следик, Ши Уигхэм и др.
Описание: 1920 год. Через несколько часов Атлантик-Сити — столица развлечений и порока, как и вся Америка, вступит в эпоху «Сухого закона». Енох «Наки» Томпсон, днем — городской казначей, а ночью — хитроумный гангстер со связями на самом «верху», решает воспользоваться ситуацией и получить баснословные прибыли на подпольной торговле алкоголем. Однако не он один жаждет обогатиться на новом промысле…
Доп. информация: Внимание! В переводе присутствует ненормативная лексика!
Сэмпл: http://sendfile.su/1250997
Качество: HDTVRip
Формат: AVI
Видео: XviD, 720x400 (16:9), 23,976 fps, ~1500 kbps
Аудио: AC3, 48 kHz, 6 ch, 384 kbps
Субтитры: отсутствуют

Список серий

01. "Resolution" Тим Ван Паттен, Теренс Уинтер - сентябрь 16, 2012 (56:59)
02. "Spaghetti & Coffee" Алик Сахаров, Говард Кордер - сентябрь 23, 2012 (58:15)
03. "Bone for Tuna" Джереми Подесва, Крис Хэддок - сентябрь 30, 2012 (55:25)
04. "Blue Bell Boy" Кари Скоглэнд, Дэвид Стенн - октябрь 7, 2012 (56:03)
05. "You'd Be Surprised" Тим Ван Паттен, Дайан Фролов и Эндрю Шнайдер - октябрь 14, 2012 (58:23)
06. "Ging Gang Goolie" Эд Бьянчи, Стив Корнаки - октябрь 21, 2012 (55:43)
07. "Sunday Best" Аллен Култер, Говард Кордер - октябрь 28, 2012 (58:22)
08. "The Pony" Тим Ван Паттен, Теренс Уинтер и Говард Кордер - ноябрь 4, 2012 (58:25)
09. "The Milkmaid's Lot" Эд Бьянчи, Ролин Джонс - ноябрь 11, 2012 (53:23)
10. "A Man, A Plan..." Джереми Подесва, Дэйв Флеботт - ноябрь 18, 2012 (57:25)
11. "Two Imposters" Аллен Култер, Говард Кордер - ноябрь 25, 2012 (49:28)
12. "Margate Sands" Тим Ван Паттен, Теренс Уинтер и Говард Кордер - декабрь 2, 2012 (59:25)

MediaInfo

Общее
Полное имя : I:\_Boardwalk Empire\Complete Third Season\s03e01 Resolution.avi
Формат : AVI
Формат/Информация : Audio Video Interleave
Размер файла : 810 Мбайт
Продолжительность : 56 м.
Общий поток : 1986 Кбит/сек
Программа кодирования : VirtualDubMod 1.5.10.2 (build 2540/release)
Библиотека кодирования : VirtualDubMod build 2540/release
Видео
Идентификатор : 0
Формат : MPEG-4 Visual
Профиль формата : Advanced Simple@L5
Параметр BVOP формата : 2
Параметр QPel формата : Нет
Параметр GMC формата : Без точки перехода
Параметр матрицы формата : Default (H.263)
Режим смешивания : Сжатый битовый поток
Идентификатор кодека : XVID
Идентификатор кодека/Подсказка : XviD
Продолжительность : 56 м.
Битрейт : 1593 Кбит/сек
Ширина : 720 пикселей
Высота : 400 пикселей
Соотношение сторон : 16:9
Соотношение сторон в оригинале : 16:9
Частота кадров : 23,976 (23976/1000) кадра/сек
Цветовое пространство : YUV
Субдискретизация насыщенности : 4:2:0
Битовая глубина : 8 бит
Тип развёртки : Прогрессивная
Метод сжатия : С потерями
Бит/(Пиксели*Кадры) : 0.231
Размер потока : 649 Мбайт (80%)
Библиотека кодирования : XviD 64
Аудио
Идентификатор : 1
Формат : AC-3
Формат/Информация : Audio Coding 3
Расширение режима : CM (complete main)
Параметр Endianness формата : Big
Идентификатор кодека : 2000
Продолжительность : 56 м.
Вид битрейта : Постоянный
Битрейт : 384 Кбит/сек
Каналы : 6 каналов
Расположение каналов : Front: L C R, Side: L R, LFE
Частота : 48,0 КГц
Частота кадров : 31,250 кадров/сек (1536 spf)
Метод сжатия : С потерями
Размер потока : 157 Мбайт (19%)
Выравнивание : Разделение по промежуткам
Продолжительность промежутка : 42 мс. (1,00 видеокадр)
Время предзагрузки промежутка : 500 мс.

Скриншоты





Вне форума [Профиль] [ЛС]
Похожие темы
Форум Тема Автор Торрент Отв. Посл. сообщение
./templates/default/images/folder_dl.gif Развлекательные телепередачи и шоу, приколы и юмор Нашествие преступности: новое криминальное подполье Британии / Crime Invasion: Britain's New Underworld [01-09] (2007) PDTVRip Omen
0 | 1

0 | 293

0

2013-01-29 05:02
Omen Последнее
./templates/default/images/folder_dl.gif Компьютерная литература Джейми Бартлетт | Подпольный интернет. Темная сторона мировой паутины (2017) [FB2] }{@R0N
1 | 0

0 | 896

12

2017-01-06 23:48
}{@R0N Последнее
Показать сообщения:    
Ответить на тему

Текущее время: Сегодня 03:12

Часовой пояс: GMT + 3



Вы не можете начинать темы
Вы не можете отвечать на сообщения
Вы не можете редактировать свои сообщения
Вы не можете удалять свои сообщения
Вы не можете голосовать в опросах
Вы не можете прикреплять файлы к сообщениям
Вы не можете скачивать файлы