Сегодня идет свободное скачивание без начисления Download

Без обязательств /Casual / Сезон: 2 / Серии: 1-7 из 13 (Джейсон Райтман, Майкл Уивер, Фред Сэвэдж) [2016, драма, комедия, WEBRip 720p] DVO (Gears Media) + Original

Ответить на тему
 
Автор
Сообщение

Omen ®

Стаж: 5 лет 6 месяцев

Сообщений: 186946

Торрент-статистика

Пост 18-Июл-2016 01:01

[Цитировать]

Без обязательств / Casual- Год выпуска: 2016
Страна: США
Жанр: драма, комедия
Продолжительность: ~ 25 мин
Перевод: Профессиональный (двухголосый закадровый)[Gears Media]
Режиссёр: Джейсон Райтман, Майкл Уивер, Фред Сэвэдж
В ролях: Микейла Уоткинс, Томми Дьюи, Тара Барр, Джули Берман, Няша Хатенди, Зак Орт, Фред Меламед, Фрэнсис Конрой, Патрик Хьюсингер
Описание:
Комедийный сериал о брате-холостяке и его недавно разведенной сестре, которые снова оказываются под одной крышей. Вместе они воспитывают ее дочь-подростка, а также помогают друг другу разобраться с проблемами на личном фронте.
Сэмпл: http://multi-up.com/1109721
Качество: WEBRip 720p
Формат: MKV
Видео: x264, 1280x720 (16:9), 23,976 fps, ~3000 kbps
Аудио1: Russian, AC3, 48 kHz, 2 ch, 384 kbps
Аудио2: English, AAC, 24 kHz, 2 ch, 64 kbps

MediaInfo

Format : Matroska
Format version : Version 4 / Version 2
File size : 480 MiB
Duration : 25mn 10s
Overall bit rate : 2 665 Kbps
Encoded date : UTC 2016-07-13 15:02:58
Writing application : mkvmerge v9.2.0 ('Photograph') 64bit
Writing library : libebml v1.3.3 + libmatroska v1.4.4
Video
ID : 1
Format : AVC
Format/Info : Advanced Video Codec
Format profile : High@L3.1
Format settings, CABAC : Yes
Format settings, ReFrames : 5 frames
Codec ID : V_MPEG4/ISO/AVC
Duration : 25mn 10s
Bit rate : 2 215 Kbps
Width : 1 280 pixels
Height : 720 pixels
Display aspect ratio : 16:9
Frame rate mode : Constant
Frame rate : 23.976 (24000/1001) fps
Color space : YUV
Chroma subsampling : 4:2:0
Bit depth : 8 bits
Scan type : Progressive
Bits/(Pixel*Frame) : 0.100
Stream size : 399 MiB (83%)
Default : Yes
Forced : No
Audio #1
ID : 2
Format : AC-3
Format/Info : Audio Coding 3
Mode extension : CM (complete main)
Format settings, Endianness : Big
Codec ID : A_AC3
Duration : 25mn 10s
Bit rate mode : Constant
Bit rate : 384 Kbps
Channel(s) : 2 channels
Channel positions : Front: L R
Sampling rate : 48.0 KHz
Frame rate : 31.250 fps (1536 spf)
Compression mode : Lossy
Stream size : 69.2 MiB (14%)
Title : Gears Media
Language : Russian
Default : Yes
Forced : Yes
Audio #2
ID : 3
Format : AAC
Format/Info : Advanced Audio Codec
Format profile : HE-AAC / LC
Codec ID : A_AAC
Duration : 25mn 10s
Bit rate : 64.0 Kbps
Channel(s) : 2 channels
Channel positions : Front: L R
Sampling rate : 48.0 KHz / 24.0 KHz
Frame rate : 23.438 fps (1024 spf)
Compression mode : Lossy
Stream size : 11.5 MiB (2%)
Language : English
Default : No
Forced : No

Скриншоты

Вне форума [Профиль] [ЛС]
Показать сообщения:    
Ответить на тему

Текущее время: Сегодня 22:27

Часовой пояс: GMT + 3



Вы не можете начинать темы
Вы не можете отвечать на сообщения
Вы не можете редактировать свои сообщения
Вы не можете удалять свои сообщения
Вы не можете голосовать в опросах
Вы не можете прикреплять файлы к сообщениям
Вы не можете скачивать файлы