Сегодня идет свободное скачивание без начисления Download

Завербован / Enlisted / Сезон: 1 / Серии: 4-8 из 13 (Фил Трэйл) [2014, Комедия, HDTVRip] Original + Rus Subs (Notabenoid)

Ответить на тему
 
Автор
Сообщение

Omen ®

Стаж: 5 лет 9 месяцев

Сообщений: 184433

Торрент-статистика

Пост 18-Июл-2016 01:00

[Цитировать]

Завербован / Enlisted
Год выпуска: 2014
Страна: США
Жанр: Комедия
Продолжительность: 5 х ~ 00:21:00
Перевод: Субтитры Notabenoid
Переводчики: WinniethePooh
Режиссёр: Фил Трэйл
В ролях: Джофф Стульц, Крис Лоуэлл, Паркер Янг, Кит Дэвид, Анжелика Кебрал, Гриффин Кливлэнд, Таня Гунади, Colby Jensen, Мэри Энн Лумба, Камерон Кастанеда
Описание: История о трех братьях военных, которые, в то время как лучшие из лучших отправляются служить за границу, остаются на военной базе, где пытаются поддерживать порядок…
Сэмпл: http://sendfile.su/1250741
Качество: HDTVRip
Формат: AVI
Видео: 720x404 (1.78:1), 25 fps, XviD build 63 ~1915 kbps avg, 0.26 bit/pixel
Аудио: 44.100 kHz, MPEG Layer 3, 2 ch, ~128.00 kbps avg
Субтитры: Русские (хардсаб)

MediaInfo

Общее
Полное имя : D:\Enlisted s01\Enlisted.S01E04_xvid.avi
Формат : AVI
Формат/Информация : Audio Video Interleave
Размер файла : 318 Мбайт
Продолжительность : 21 м.
Общий поток : 2057 Кбит/сек
Программа кодирования : Lavf55.19.104
Видео
Идентификатор : 0
Формат : xvid
Идентификатор кодека : xvid
Продолжительность : 21 м.
Битрейт : 1916 Кбит/сек
Ширина : 720 пикселей
Высота : 404 пикселя
Соотношение сторон : 16:9
Частота кадров : 25,000 кадров/сек
Бит/(Пиксели*Кадры) : 0.264
Размер потока : 296 Мбайт (93%)
Аудио
Идентификатор : 1
Формат : MPEG Audio
Версия формата : Version 1
Профиль формата : Layer 3
Режим : Joint stereo
Расширение режима : MS Stereo
Идентификатор кодека : 55
Идентификатор кодека/Подсказка : MP3
Продолжительность : 21 м.
Вид битрейта : Постоянный
Битрейт : 128 Кбит/сек
Каналы : 2 канала
Частота : 44,1 КГц
Метод сжатия : С потерями
Размер потока : 19,8 Мбайт (6%)
Выравнивание : Соединение по промежуткам
Продолжительность промежутка : 26 мс. (0,65 видеокадр)
Время предзагрузки промежутка : 26 мс.
Общее
Полное имя : D:\Enlisted s01\Enlisted.S01E05_xvid.avi
Формат : AVI
Формат/Информация : Audio Video Interleave
Размер файла : 318 Мбайт
Продолжительность : 21 м.
Общий поток : 2059 Кбит/сек
Программа кодирования : Lavf55.19.104
Видео
Идентификатор : 0
Формат : xvid
Идентификатор кодека : xvid
Продолжительность : 21 м.
Битрейт : 1919 Кбит/сек
Ширина : 720 пикселей
Высота : 404 пикселя
Соотношение сторон : 16:9
Частота кадров : 25,000 кадров/сек
Бит/(Пиксели*Кадры) : 0.264
Размер потока : 296 Мбайт (93%)
Аудио
Идентификатор : 1
Формат : MPEG Audio
Версия формата : Version 1
Профиль формата : Layer 3
Режим : Joint stereo
Расширение режима : MS Stereo
Идентификатор кодека : 55
Идентификатор кодека/Подсказка : MP3
Продолжительность : 21 м.
Вид битрейта : Постоянный
Битрейт : 128 Кбит/сек
Каналы : 2 канала
Частота : 44,1 КГц
Метод сжатия : С потерями
Размер потока : 19,8 Мбайт (6%)
Выравнивание : Соединение по промежуткам
Продолжительность промежутка : 26 мс. (0,65 видеокадр)
Время предзагрузки промежутка : 26 мс.
Общее
Полное имя : D:\Enlisted s01\Enlisted.S01E06_xvid.avi
Формат : AVI
Формат/Информация : Audio Video Interleave
Размер файла : 318 Мбайт
Продолжительность : 21 м.
Общий поток : 2059 Кбит/сек
Программа кодирования : Lavf55.19.104
Видео
Идентификатор : 0
Формат : xvid
Идентификатор кодека : xvid
Продолжительность : 21 м.
Битрейт : 1919 Кбит/сек
Ширина : 720 пикселей
Высота : 404 пикселя
Соотношение сторон : 16:9
Частота кадров : 25,000 кадров/сек
Бит/(Пиксели*Кадры) : 0.264
Размер потока : 297 Мбайт (93%)
Аудио
Идентификатор : 1
Формат : MPEG Audio
Версия формата : Version 1
Профиль формата : Layer 3
Режим : Joint stereo
Расширение режима : MS Stereo
Идентификатор кодека : 55
Идентификатор кодека/Подсказка : MP3
Продолжительность : 21 м.
Вид битрейта : Постоянный
Битрейт : 128 Кбит/сек
Каналы : 2 канала
Частота : 44,1 КГц
Метод сжатия : С потерями
Размер потока : 19,8 Мбайт (6%)
Выравнивание : Соединение по промежуткам
Продолжительность промежутка : 26 мс. (0,65 видеокадр)
Время предзагрузки промежутка : 26 мс.
Общее
Полное имя : D:\Enlisted s01\Enlisted.S01E07_xvid.avi
Формат : AVI
Формат/Информация : Audio Video Interleave
Размер файла : 318 Мбайт
Продолжительность : 21 м.
Общий поток : 2056 Кбит/сек
Программа кодирования : Lavf55.19.104
Видео
Идентификатор : 0
Формат : xvid
Идентификатор кодека : xvid
Продолжительность : 21 м.
Битрейт : 1916 Кбит/сек
Ширина : 720 пикселей
Высота : 404 пикселя
Соотношение сторон : 16:9
Частота кадров : 25,000 кадров/сек
Бит/(Пиксели*Кадры) : 0.263
Размер потока : 296 Мбайт (93%)
Аудио
Идентификатор : 1
Формат : MPEG Audio
Версия формата : Version 1
Профиль формата : Layer 3
Режим : Joint stereo
Расширение режима : MS Stereo
Идентификатор кодека : 55
Идентификатор кодека/Подсказка : MP3
Продолжительность : 21 м.
Вид битрейта : Постоянный
Битрейт : 128 Кбит/сек
Каналы : 2 канала
Частота : 44,1 КГц
Метод сжатия : С потерями
Размер потока : 19,8 Мбайт (6%)
Выравнивание : Соединение по промежуткам
Продолжительность промежутка : 26 мс. (0,65 видеокадр)
Время предзагрузки промежутка : 26 мс.
Библиотека кодирования : LAME3.98.4
Общее
Полное имя : D:\Enlisted s01\Enlisted.S01E08_xvid.avi
Формат : AVI
Формат/Информация : Audio Video Interleave
Размер файла : 317 Мбайт
Продолжительность : 21 м.
Общий поток : 2054 Кбит/сек
Программа кодирования : Lavf55.19.104
Видео
Идентификатор : 0
Формат : xvid
Идентификатор кодека : xvid
Продолжительность : 21 м.
Битрейт : 1913 Кбит/сек
Ширина : 720 пикселей
Высота : 404 пикселя
Соотношение сторон : 16:9
Частота кадров : 25,000 кадров/сек
Бит/(Пиксели*Кадры) : 0.263
Размер потока : 295 Мбайт (93%)
Аудио
Идентификатор : 1
Формат : MPEG Audio
Версия формата : Version 1
Профиль формата : Layer 3
Режим : Joint stereo
Расширение режима : MS Stereo
Идентификатор кодека : 55
Идентификатор кодека/Подсказка : MP3
Продолжительность : 21 м.
Вид битрейта : Постоянный
Битрейт : 128 Кбит/сек
Каналы : 2 канала
Частота : 44,1 КГц
Метод сжатия : С потерями
Размер потока : 19,7 Мбайт (6%)
Выравнивание : Соединение по промежуткам
Продолжительность промежутка : 26 мс. (0,65 видеокадр)
Время предзагрузки промежутка : 26 мс.

Скриншоты


Вне форума [Профиль] [ЛС]
Показать сообщения:    
Ответить на тему

Текущее время: Сегодня 23:23

Часовой пояс: GMT + 3



Вы не можете начинать темы
Вы не можете отвечать на сообщения
Вы не можете редактировать свои сообщения
Вы не можете удалять свои сообщения
Вы не можете голосовать в опросах
Вы не можете прикреплять файлы к сообщениям
Вы не можете скачивать файлы