Сегодня идет свободное скачивание без начисления Download

Мёртвая зона / The Dead Zone / Сезон: 3 / Серии: 1-12 из 12 (Джеймс Хэд, Майкл Робисан, Майк Рол / James Head, Michael Robison, Mike Rohl) [2004, фантастика, фэнтези, драма, детектив, DVDRip] MVO (ОРТ) + Original

Ответить на тему
 
Автор
Сообщение

Omen ®

Стаж: 5 лет 6 месяцев

Сообщений: 186946

Торрент-статистика

Пост 17-Июл-2016 01:01

[Цитировать]

-Мёртвая зона / The Dead ZoneПолный 3-й сезон-- Год выпуска: 2004
Страна: Канада, США
Жанр: фантастика, фэнтези, драма, детектив
Продолжительность: 00:42:00
Перевод: Профессиональный (многоголосый закадровый) ОРТ-Режиссёр: Джеймс Хэд, Майкл Робисан, Майк Рол / James Head, Michael Robison, Mike Rohl-В ролях: Энтони Майкл Холл, Николь де Бур, Крис Бруно, Джон Л. Адамс, Дэвид Огден Стайерз, Билл Монди, Спенсер Актимичук, Шон Патрик Флэнери, Кристен Далтон, Джим Френсис-Описание: Джонни Смит вел тихую жизнь в маленьком городке. Он преподавал естественные науки в школе, был помолвлен с Сарой, единственной любовью всей его жизни, и заботился об овдовевшей матери Вере, живущей по соседству. Но после автокатастрофы, в которой он чуть не погиб, Джонни впадает в глубокую кому.
Сознание возвращается к нему только шесть лет спустя… За это время многое успело перемениться: Сара вышла замуж за местного шерифа Уолта Баннермена, ребенок, которого растят Сара и ее муж,-сын Джонни, и он ничего не знает о своем настоящем отце, мать Джонни Вера умерла, оставив все деньги — и свои, и Джонни — в распоряжение отца Парди, влиятельного религиозного лидера, который был когда-то ее любовником.
Но что самое важное, перемены произошли и в самом Джонни: в нем открылся дар видеть то, что не могут видеть другие. Джонни научился видеть будущее, но означает ли это, что он сможет изменять его?- -Сэмпл: http://multi-up.com/1110090-Качество: DVDRip
Формат: AVI
Видео: XviD, 704x400, 25 fps, 1740 kbps avg, 0.247 bit/pixel
Аудио #1: Rus, AC3 Dolby Digital, 48,0 kHz, 2 ch, 192 kbps
Аудио #2: Eng, AC3 Dolby Digital, 48,0 kHz, 2 ch, 192 kbps
Субтитры: отсутствуют-

MediaInfo

Общее
Полное имя : C:\Users\Roman\Documents\Мёртвая зона\Myortvaya.Zona.S03\Myortvaya.Zona.S03E01.avi
Формат : AVI
Формат/Информация : Audio Video Interleave
Размер файла : 606 Мбайт
Продолжительность : 39 м.
Общий поток : 2138 Кбит/сек
Программа кодирования : VirtualDubMod 1.5.10.2 (build 2540/release)
Видео
Идентификатор : 0
Формат : MPEG-4 Visual
Профиль формата : Advanced Simple@L5
Параметр BVOP формата : 2
Параметр QPel формата : Нет
Параметр GMC формата : Без точки перехода
Параметр матрицы формата : Default (MPEG)
Идентификатор кодека : XVID
Идентификатор кодека/Подсказка : XviD
Продолжительность : 39 м.
Битрейт : 1740 Кбит/сек
Ширина : 704 пикселя
Высота : 400 пикселей
Соотношение сторон : 16:9
Частота кадров : 25,000 кадров/сек
Цветовое пространство : YUV
Субдискретизация насыщенности : 4:2:0
Битовая глубина : 8 бит
Тип развёртки : Прогрессивная
Метод сжатия : С потерями
Бит/(Пиксели*Кадры) : 0.247
Размер потока : 493 Мбайт (81%)
Библиотека кодирования : XviD 1.2.0.dev47 (UTC 2006-11-01)
Аудио #1
Идентификатор : 1
Формат : AC-3
Формат/Информация : Audio Coding 3
Расширение режима : CM (complete main)
Параметр Endianness формата : Big
Идентификатор кодека : 2000
Продолжительность : 39 м.
Вид битрейта : Постоянный
Битрейт : 192 Кбит/сек
Каналы : 2 канала
Расположение каналов : Front: L R
Частота : 48,0 КГц
Битовая глубина : 16 бит
Метод сжатия : С потерями
Размер потока : 54,5 Мбайт (9%)
Выравнивание : Разделение по промежуткам
Продолжительность промежутка : 40 мс. (1,00 видеокадр)
Время предзагрузки промежутка : 500 мс.
Аудио #2
Идентификатор : 2
Формат : AC-3
Формат/Информация : Audio Coding 3
Расширение режима : CM (complete main)
Параметр Endianness формата : Big
Идентификатор кодека : 2000
Продолжительность : 39 м.
Вид битрейта : Постоянный
Битрейт : 192 Кбит/сек
Каналы : 2 канала
Расположение каналов : Front: L R
Частота : 48,0 КГц
Битовая глубина : 16 бит
Метод сжатия : С потерями
Размер потока : 54,5 Мбайт (9%)
Выравнивание : Разделение по промежуткам
Продолжительность промежутка : 40 мс. (1,00 видеокадр)
Время предзагрузки промежутка : 500 мс.
-

Скриншоты

-
Вне форума [Профиль] [ЛС]
Показать сообщения:    
Ответить на тему

Текущее время: Сегодня 02:22

Часовой пояс: GMT + 3



Вы не можете начинать темы
Вы не можете отвечать на сообщения
Вы не можете редактировать свои сообщения
Вы не можете удалять свои сообщения
Вы не можете голосовать в опросах
Вы не можете прикреплять файлы к сообщениям
Вы не можете скачивать файлы