Сегодня идет свободное скачивание без начисления Download

Юнцы / Chickens / Сезон: 1 / Серии: 1 серия из 6 (Бен Палмер, Стив Бенделак) [2013, Комедия, HDTVRip] Original + Rus Subs (Notabenoid)

Ответить на тему
 
Автор
Сообщение

Omen ®

Стаж: 5 лет 6 месяцев

Сообщений: 186946

Торрент-статистика

Пост 16-Июл-2016 01:01

[Цитировать]

Юнцы / Chickens
Год выпуска: 2013
Страна: Великобритания
Жанр: Комедия
Продолжительность: 1 х ~ 00:21:00
Перевод: Субтитры
Режиссёр: Бен Палмер, Стив Бенделак
В ролях: Саймон Бёрд, Джо Томас, Джонни Свит, Сара Дэйкин, Эмиральд Феннел, Эми Доусон, Луиз Форд, Эмма Фрайер, Вики Пеппердин, Эйлин Дейвис
Описание: События сериала разворачиваются в небольшой английской деревушке во времена Первой мировой войны. Главные герои — трое молодых людей, который не попали на фронт, но при этом борются друг с другом…
Качество: HDTVRip
Формат: AVI
Видео: 720x404 (1.78:1), 25 fps, XviD build 63 ~1999 kbps avg, 0.28 bit/pixel
Аудио: 44.100 kHz, MPEG Layer 3, 2 ch, ~128.00 kbps avg
Субтитры: Переведено на Нотабеноиде
Переводчики: Elizaveta99, silenico

MediaInfo

D:\Chickens.S01\Chickens.S01e01_xvid.avi
General
Complete name : D:\Chickens.S01\Chickens.S01e01_xvid.avi
Format : AVI
Format/Info : Audio Video Interleave
File size : 316 MiB
Duration : 20mn 39s
Overall bit rate : 2 140 Kbps
Writing application : Lavf55.19.104
Video #0
ID : 0
Format : xvid
Codec ID : xvid
Duration : 20mn 39s
Bit rate : 2 000 Kbps
Width : 720 pixels
Height : 404 pixels
Display aspect ratio : 16:9
Frame rate : 25.000 fps
Bits/(Pixel*Frame) : 0.275
Stream size : 296 MiB (93%)
Audio #1
ID : 1
Format : MPEG Audio
Format version : Version 1
Format profile : Layer 3
Mode : Joint stereo
Mode extension : MS Stereo
Codec ID : 55
Codec ID/Hint : MP3
Duration : 20mn 39s
Bit rate mode : Constant
Bit rate : 128 Kbps
Channel(s) : 2 channels
Sampling rate : 44.1 KHz
Compression mode : Lossy
Stream size : 18.9 MiB (6%)
Alignment : Aligned on interleaves
Interleave, duration : 26 ms (0.65 video frame)
Interleave, preload duration : 26 ms

Скриншоты


Вне форума [Профиль] [ЛС]
Показать сообщения:    
Ответить на тему

Текущее время: Сегодня 03:25

Часовой пояс: GMT + 3



Вы не можете начинать темы
Вы не можете отвечать на сообщения
Вы не можете редактировать свои сообщения
Вы не можете удалять свои сообщения
Вы не можете голосовать в опросах
Вы не можете прикреплять файлы к сообщениям
Вы не можете скачивать файлы