Сегодня идет свободное скачивание без начисления Download

Путаница / Tangle / Сезон: 1 / Серии: 1 из 10 (Fiona Seres, Imogen Banks, John Edwards) [2009, мелодрама, PDTVRip] Original + Rus Subs (Ron.Studio™) + Original

Ответить на тему
 
Автор
Сообщение

Omen ®

Стаж: 5 лет 9 месяцев

Сообщений: 184393

Торрент-статистика

Пост 15-Июл-2016 01:00

[Цитировать]

Путаница / Tangle
Год выпуска: 2009
Страна: Австралия
Жанр: мелодрама
Продолжительность: 00:52:00
Перевод: Субтитры Ron.Studio™
Режиссёр: Fiona Seres, Imogen Banks, John Edwards
В ролях: Justine Clarke, Catherine McClements, Joel Tobeck, Matt Day, Kat Stewart, Blake Davis, Lincoln Younes, Eva Lazzaro, Georgia Flood, Tony Rickards, Kick Gurry, Reef Ireland, Ben Mendelsohn
Описание: История двух поколений двух семей, которые сталкиваются, соединяются, а иногда спорят друг с другом, как проложить свой путь лабиринте любви, секса, денег и политики.
Сэмпл: http://multi-up.com/1109847
Качество: PDTVRip
Формат: MP4
Видео: AVC, 640х350 (16:9), 25 fps, 1000 kbps, 0.072 bit/pixel
Аудио: AAC, 48 kHz, 2 ch, 96 kbps
Субтитры: Внешние *.srt

MediaInfo

General
Complete name : C:\Tangle.AU.s0S1e01.mp4
Format : MPEG-4
Format profile : Base Media / Version 2
Codec ID : mp42
File size : 190 MiB
Duration : 51mn 33s
Overall bit rate mode : Variable
Overall bit rate : 516 Kbps
Encoded date : UTC 2014-05-26 02:14:35
Tagged date : UTC 2014-05-26 02:14:35
gsst : 0
gstd : 3093198
Video
ID : 1
Format : AVC
Format/Info : Advanced Video Codec
Format profile : Baseline@L3.0
Format settings, CABAC : No
Format settings, ReFrames : 1 frame
Codec ID : avc1
Codec ID/Info : Advanced Video Coding
Duration : 51mn 33s
Bit rate : 417 Kbps
Maximum bit rate : 1 578 Kbps
Width : 640 pixels
Height : 360 pixels
Display aspect ratio : 16:9
Frame rate mode : Constant
Frame rate : 25.000 fps
Color space : YUV
Chroma subsampling : 4:2:0
Bit depth : 8 bits
Scan type : Progressive
Bits/(Pixel*Frame) : 0.072
Stream size : 154 MiB (81%)
Tagged date : UTC 2014-05-26 02:16:21
Audio
ID : 2
Format : AAC
Format/Info : Advanced Audio Codec
Format profile : LC
Codec ID : 40
Duration : 51mn 33s
Bit rate mode : Variable
Bit rate : 96.0 Kbps
Maximum bit rate : 103 Kbps
Channel(s) : 2 channels
Channel positions : Front: L R
Sampling rate : 44.1 KHz
Compression mode : Lossy
Stream size : 35.4 MiB (19%)
Title : IsoMedia File Produced by Google, 5-11-2011
Encoded date : UTC 2014-05-26 02:15:34
Tagged date : UTC 2014-05-26 02:16:21

Скриншоты

Вне форума [Профиль] [ЛС]
Показать сообщения:    
Ответить на тему

Текущее время: Сегодня 20:50

Часовой пояс: GMT + 3



Вы не можете начинать темы
Вы не можете отвечать на сообщения
Вы не можете редактировать свои сообщения
Вы не можете удалять свои сообщения
Вы не можете голосовать в опросах
Вы не можете прикреплять файлы к сообщениям
Вы не можете скачивать файлы