Сегодня идет свободное скачивание без начисления Download

Чужестранка / Outlander / Сезон: 2 / Серии: 1-12 из 13 (Анна Ферстер, Брайан Келли, Ричард Кларк) [2016, фантастика, драма, мелодрама, WEB-DL 1080p] MVO (NewStudio) + Original + Subs (Rus, Eng)

Ответить на тему
 
Автор
Сообщение

Omen ®

Стаж: 5 лет 6 месяцев

Сообщений: 186946

Торрент-статистика

Пост 13-Июл-2016 01:00

[Цитировать]

-Чужестранка | Outlander-- • Год выпуска: 2016
• Страна: США
• Жанр: фантастика, драма, мелодрама
• Продолжительность: ~ 01:03:00-• Перевод: Профессиональный (многоголосый закадровый) | NewStudio-• Режиссёр: Анна Ферстер, Брайан Келли, Ричард Кларк, Джон Дал-• В ролях: Катрина Балф, Сэм Юэн, Дункан Лакруа, Гари Льюис, Грэм Мак Тавиш, Тобиас Мензис, Стивен Уолтерс, Аннет Бэдленд, Родерик Джилкисон. и др.-• Описание: Клэр, работавшая медсестрой во время Второй мировой войны, случайно перемещается во времени и попадает в 1743 год. В этом мире, полном приключений, она знакомится с шотландским рыцарем Джейми. У героев завязывается страстный роман, несмотря на то, что сердце Клэр разрывается между двумя мужчинами — Джейми и ее мужем Фрэнком, который остался в другом времени.- --• Качество: WEB-DL 1080p
• Формат: MKV
• Видео: Н.264, 1916x1076, 23.976 fps, ~5005 kbps
• Аудио #1: AC3, 48 kHz, 6 ch, 384 kbps, CBR - Rus
• Аудио #2: AC3, 48 kHz, 6 ch, 384 kbps, CBR - Eng
• Субтитры: Русские (byCaptainNEMO), Английские-

✘ Подробнее ✘

Перевод: Григорий Сенин
Постер: Vortex
Работа со звуком, синхронизация субтитров, сборка - qqss44
Субтитры - byCaptainNEMO (проф. перевод)

✘ MediaInfo ✘

Код:
Общее
Уникальный идентификатор                 : 210656119612316497766725922001058977284 (0x9E7AE49352CFD3CFA293EC7BED9AD604)
Полное имя                               : X:\ATorrent\Outlander (Season 02) NewStudio 1080\Outlander.[S02E01].1080p.NewStudio.[qqss44].mkv
Формат                                   : Matroska
Версия формата                           : Version 2
Размер файла                             : 2,38 Гбайт
Продолжительность                        : 59 м.
Режим общего битрейта                    : Переменный
Общий поток                              : 5776 Кбит/сек
Дата кодирования                         : UTC 2016-04-12 20:20:51
Программа кодирования                    : mkvmerge v7.9.0 ('Birds') 64bit
Библиотека кодирования                   : libebml v1.3.1 + libmatroska v1.4.2
Видео
Идентификатор                            : 1
Формат                                   : AVC
Формат/Информация                        : Advanced Video Codec
Профиль формата                          : High@L4
Параметр CABAC формата                   : Да
Параметр ReFrames формата                : 2 кадра
Идентификатор кодека                     : V_MPEG4/ISO/AVC
Продолжительность                        : 59 м.
Вид битрейта                             : Переменный
Битрейт                                  : 5005 Кбит/сек
Максимальный битрейт                     : 768 Кбит/сек
Ширина                                   : 1916 пикселей
Высота                                   : 1076 пикселей
Соотношение сторон                       : 16:9
Режим частоты кадров                     : Постоянный
Частота кадров                           : 23,976 (23976/1000) кадра/сек
Частота кадров в оригинале               : 25,000 кадров/сек
Цветовое пространство                    : YUV
Субдискретизация насыщенности            : 4:2:0
Битовая глубина                          : 8 бит
Тип развёртки                            : Прогрессивная
Бит/(Пиксели*Кадры)                      : 0.101
Размер потока                            : 2,06 Гбайт (87%)
Язык                                     : English
Default                                  : Да
Forced                                   : Нет
Аудио #1
Идентификатор                            : 2
Формат                                   : AC-3
Формат/Информация                        : Audio Coding 3
Расширение режима                        : CM (complete main)
Параметр Endianness формата              : Big
Идентификатор кодека                     : A_AC3
Продолжительность                        : 59 м.
Вид битрейта                             : Постоянный
Битрейт                                  : 384 Кбит/сек
Каналы                                   : 6 каналов
Расположение каналов                     : Front: L C R, Side: L R, LFE
Частота                                  : 48,0 КГц
Частота кадров                           : 31,250 кадров/сек (1536 spf)
Метод сжатия                             : С потерями
Размер потока                            : 162 Мбайт (7%)
Язык                                     : Russian
Default                                  : Да
Forced                                   : Нет
Аудио #2
Идентификатор                            : 3
Формат                                   : AC-3
Формат/Информация                        : Audio Coding 3
Расширение режима                        : CM (complete main)
Параметр Endianness формата              : Big
Идентификатор кодека                     : A_AC3
Продолжительность                        : 59 м.
Вид битрейта                             : Постоянный
Битрейт                                  : 384 Кбит/сек
Каналы                                   : 6 каналов
Расположение каналов                     : Front: L C R, Side: L R, LFE
Частота                                  : 48,0 КГц
Частота кадров                           : 31,250 кадров/сек (1536 spf)
Метод сжатия                             : С потерями
Размер потока                            : 162 Мбайт (7%)
Язык                                     : English
Default                                  : Нет
Forced                                   : Нет
Текст #1
Идентификатор                            : 4
Формат                                   : UTF-8
Идентификатор кодека                     : S_TEXT/UTF8
Идентификатор кодека/Информация          : UTF-8 Plain Text
Продолжительность                        : 57 м.
Битрейт                                  : 85 бит/сек
Count of elements                        : 712
Размер потока                            : 36,0 Кбайт (0%)
Язык                                     : Russian
Default                                  : Нет
Forced                                   : Нет
Текст #2
Идентификатор                            : 5
Формат                                   : UTF-8
Идентификатор кодека                     : S_TEXT/UTF8
Идентификатор кодека/Информация          : UTF-8 Plain Text
Продолжительность                        : 57 м.
Битрейт                                  : 52 бит/сек
Count of elements                        : 760
Размер потока                            : 22,1 Кбайт (0%)
Язык                                     : English
Default                                  : Нет
Forced                                   : Нет

✘ Скриншоты ✘

✘ Раздача ведется путем добавления новых серий ✘

Когда раздача ведётся путём добавления новых серий, при каждом добавлении создётся новый торрент. Чтобы начать докачку новой серии, пользователям необходимо сделать следующее:
(1) остановить скачивание,
(2) удалить старый торрент у себя из клиента (старые серии удалять не надо),
(3) скачать новый торрент и запустить его у себя в клиенте вместо старого, при этом указать клиенту путь в старую папку, куда и должно происходить скачивание новых серий.
Ваш клиент при этом должен произвести хеширование (проверку) старой папки (если не производит сам - помогите ему сделать это), и будет докачивать только те серии, которых у вас ещё нет. Старые серии при этом не удаляются, а продолжают раздаваться!
Eсли вы уже удалили старые серии, то предотвратить повторную закачку старых серий можно, отжав галочку в соответсвующих местах при запуске нового торрента. По возможности, желательно не удалять старые серии как можно дольше, чтобы релизёр не столько продолжал раздавать старые серии, а смог сконцентрироваться на новых.
-
Вне форума [Профиль] [ЛС]
Показать сообщения:    
Ответить на тему

Текущее время: Сегодня 18:21

Часовой пояс: GMT + 3



Вы не можете начинать темы
Вы не можете отвечать на сообщения
Вы не можете редактировать свои сообщения
Вы не можете удалять свои сообщения
Вы не можете голосовать в опросах
Вы не можете прикреплять файлы к сообщениям
Вы не можете скачивать файлы