Сегодня идет свободное скачивание без начисления Download

Бумажки (2015) WEBRip (1-34 серии из ??)

Ответить на тему
 
Автор
Сообщение

XP1971 ®

Пол:

Стаж: 4 года 11 месяцев

Сообщений: 5753

Торрент-статистика

Пост 13-Июл-2016 00:42

[Цитировать]

Бумажки (2015) WEBRip (1-34 серии из ??)- Производство: Россия | студия Паровоз
Жанр: Детский, Развивающий
Режиссер: Вадим Воля, Евгений Головин
Участники: Лось Аристотель и дятел Тюк-Тюк
Описание:
Новый обучающий анимационный сериал для детей, рассказывающий о приключениях бумажных героев в мире, который тоже целиком состоит из бумаги. Мультфильм учит детей доброте и в нём есть практичные вставки, где показано как сделать из бумаги и клея персонажей сериала. Задумка авторов состоит в том, чтобы помочь творческому и умственному развитию малышей
Релиз от: merci
Продолжительность: 34 x ~ 00:05:30
Качество видео: WEBRip
Видео: XviD, 720x400 (16:9), 25.000 fps, 1600 Kbps (0.222 bit/pixel)
Аудио: AC-3, 48.0 KHz, 2 ch, 192 Kbps, CBR

Список серий

01. Заяц или кот
02. С днем рождения, птенчики
03. Игрушка для Зюйд-Веста
04. Лучший изобретатель
05. На высоте
06. Букет для королевы
07. Под крышей дома
08. Королева хочет домой
09. Пикник в обеденное время
10. Пришелец с Фольгундии
11. Полезное Насекомое
12. Снова праздник!
13. Подвиг капитана Тюка
14. Новый сосед
15. Живые цветы
16. Знакомый незнакомец
17. За бумажным морем
18. Приходите на концерт
19. Розовая клумба
20. Звёздная ночь
21. А был ли птенчик
22. Крокодиловы слезы
23. Удачный кадр
24. Сокровища бумажной пещеры
25. Серенький волчок
26. Перевернутая история
27. Дом с привидениями
28. Бумажное солнце
29. Бумажный концерт
30. Загадочное письмо
31. Птица удачи
32. Таинственный остров
33. Радужное озеро
34. Зимой и летом

Mediainfo 1-ой серии:

Код:
Complete name                            : \Бумажки. WEBRip\01. Заяц или кот.avi
Format                                   : AVI
Format/Info                              : Audio Video Interleave
File size                                : 70.9 MiB
Duration                                 : 5mn 30s
Overall bit rate                         : 1 802 Kbps
Writing application                      : VirtualDubMod 1.5.10.3 | (build 2550/release)
Writing library                          : VirtualDubMod build 2550/release
Video
ID                                       : 0
Format                                   : MPEG-4 Visual
Format profile                           : Advanced Simple@L5
Format settings, BVOP                    : 1
Format settings, QPel                    : No
Format settings, GMC                     : No warppoints
Format settings, Matrix                  : Default (MPEG)
Codec ID                                 : XVID
Codec ID/Hint                            : XviD
Duration                                 : 5mn 30s
Bit rate                                 : 1 600 Kbps
Width                                    : 720 pixels
Height                                   : 400 pixels
Display aspect ratio                     : 16:9
Frame rate                               : 25.000 fps
Color space                              : YUV
Chroma subsampling                       : 4:2:0
Bit depth                                : 8 bits
Scan type                                : Progressive
Compression mode                         : Lossy
Bits/(Pixel*Frame)                       : 0.222
Stream size                              : 63.0 MiB (89%)
Writing library                          : XviD 65
Audio
ID                                       : 1
Format                                   : AC-3
Format/Info                              : Audio Coding 3
Mode extension                           : CM (complete main)
Format settings, Endianness              : Big
Codec ID                                 : 2000
Duration                                 : 5mn 30s
Bit rate mode                            : Constant
Bit rate                                 : 192 Kbps
Channel(s)                               : 2 channels
Channel positions                        : Front: L R
Sampling rate                            : 48.0 KHz
Bit depth                                : 16 bits
Compression mode                         : Lossy
Stream size                              : 7.56 MiB (11%)
Alignment                                : Split accross interleaves
Interleave, duration                     : 40 ms (1.00 video frame)
Interleave, preload duration             : 500 ms
Скриншоты:
       

Дополнительные скриншоты:

       
       

-

-

_________________
Вне форума [Профиль] [ЛС]
Показать сообщения:    
Ответить на тему

Текущее время: Сегодня 16:15

Часовой пояс: GMT + 3



Вы не можете начинать темы
Вы не можете отвечать на сообщения
Вы не можете редактировать свои сообщения
Вы не можете удалять свои сообщения
Вы не можете голосовать в опросах
Вы не можете прикреплять файлы к сообщениям
Вы не можете скачивать файлы