Сегодня идет свободное скачивание без начисления Download

Лонгмайр / Longmire / Сезон: 4 / Серии: 1-10 (10) (Джеймс М. Муро, Кристофер Чулак, Майкл Оффер) [2015, боевик, драма, криминал, вестерн, WEBRip 720p] MVO (Jaskier) + Original

Ответить на тему
 
Автор
Сообщение

Omen ®

Стаж: 5 лет 6 месяцев

Сообщений: 186946

Торрент-статистика

Пост 12-Июл-2016 21:00

[Цитировать]

Лонгмайр | Longmire- Оригинальное название: Longmire
Русское название: Лонгмайр
Год выпуска: 2015
Страна: США
Жанр: боевик, драма, криминал, вестерн
Продолжительность: ~00:55:00-Перевод: Профессиональный (многоголосый закадровый) Студия Jaskier
Субтитры: Нет-Режиссёр: Джеймс М. Муро, Кристофер Чулак, Майкл Оффер и др.-В ролях: Роберт Тейлор, Кэти Сакхофф, Лу Даймонд Филлипс, Кэссиди Фриман, Адам Бартли, Луанна Стефенс, Бэйли Чейз, Эй Мартинез, Занн МаКларнон, Ричард Бил и др.-Описание: Уолт Лонгмайр — шериф одного небольшого провинциального городка, расположенного в так называемом «Штате равноправия», то есть в Вайоминге. Его психологический портрет отличается весьма положительными характеристиками — порядочный, спокойный, честный, скромный, с хорошим чувством юмора. Прошел всего лишь год с той поры, как Уолт стал вдовцом. Пережить горечь этой утраты шерифу помогает его работа, которой он целиком и полностью отдает все свои силы и время. Полгода тому назад в городок прибыла Вик, ставшая первым замом и главной помощницей Уолта Лонгмайра. К слову, ранее эта симпатичная девушка работала детективом в убойном отделе полиции Филадельфии. Вместе эта парочка следит за порядком на вверенной им территории, и в свободное время тоже.-Сэмпл-Качество: WEBRip 720p
Формат: MKV-Видео: AVC, 1280x720 (16:9), 23.976 fps, ~4573 kbps, ~0.159 bit/pixel-Аудио 1: AC3, 48 kHz, 6 ch, 384 kbps Русский
Аудио 2: AC3, 48 kHz, 6 ch, 640 kbps Оригинал (Английский)-

MediaInfo

Код:
General
Unique ID                                : 197529172184151323033551513635580673358 (0x949ABC193A5AC4538B3A98D8F055FD4E)
Complete name                            : F:\Movies\Сериалы\Longmire. Season 4 (WEBRip l 720p l Jaskier)\Longmire.S04E01.Down.By.The.River.720p.WEBRip.DD5.1_Jaskier.Rus.Eng.mkv
Format                                   : Matroska
Format version                           : Version 4 / Version 2
File size                                : 2.03 GiB
Duration                                 : 1h 4mn
Overall bit rate                         : 4 537 Kbps
Encoded date                             : UTC 2016-07-12 12:37:22
Writing application                      : mkvmerge v7.8.0 ('River Man') 64bit built on Mar 27 2015 16:31:37
Writing library                          : libebml v1.3.1 + libmatroska v1.4.2
Video
ID                                       : 1
Format                                   : AVC
Format/Info                              : Advanced Video Codec
Format profile                           : High@L4.1
Format settings, CABAC                   : Yes
Format settings, ReFrames                : 9 frames
Codec ID                                 : V_MPEG4/ISO/AVC
Duration                                 : 1h 4mn
Bit rate                                 : 3 511 Kbps
Width                                    : 1 280 pixels
Height                                   : 720 pixels
Display aspect ratio                     : 16:9
Frame rate mode                          : Constant
Frame rate                               : 23.976 (24000/1001) fps
Color space                              : YUV
Chroma subsampling                       : 4:2:0
Bit depth                                : 8 bits
Scan type                                : Progressive
Bits/(Pixel*Frame)                       : 0.159
Stream size                              : 1.57 GiB (77%)
Writing library                          : x264 core 144 r2525 40bb568
Encoding settings                        : cabac=1 / ref=9 / deblock=1:-3:-3 / analyse=0x3:0x133 / me=umh / subme=10 / psy=1 / psy_rd=1.00:0.00 / mixed_ref=1 / me_range=48 / chroma_me=1 / trellis=2 / 8x8dct=1 / cqm=0 / deadzone=21,11 / fast_pskip=0 / chroma_qp_offset=-2 / threads=12 / lookahead_threads=2 / sliced_threads=0 / nr=0 / decimate=0 / interlaced=0 / bluray_compat=0 / constrained_intra=0 / bframes=8 / b_pyramid=2 / b_adapt=2 / b_bias=0 / direct=3 / weightb=1 / open_gop=0 / weightp=2 / keyint=250 / keyint_min=24 / scenecut=40 / intra_refresh=0 / rc=crf / mbtree=0 / crf=18.0 / qcomp=0.60 / qpmin=0 / qpmax=69 / qpstep=4 / ip_ratio=1.40 / pb_ratio=1.30 / aq=1:0.65
Language                                 : English
Default                                  : Yes
Forced                                   : No
Audio #1
ID                                       : 2
Format                                   : AC-3
Format/Info                              : Audio Coding 3
Mode extension                           : CM (complete main)
Format settings, Endianness              : Big
Codec ID                                 : A_AC3
Duration                                 : 1h 4mn
Bit rate mode                            : Constant
Bit rate                                 : 384 Kbps
Channel(s)                               : 6 channels
Channel positions                        : Front: L C R, Side: L R, LFE
Sampling rate                            : 48.0 KHz
Frame rate                               : 31.250 fps (1536 spf)
Compression mode                         : Lossy
Stream size                              : 176 MiB (8%)
Title                                    : RUS (Jaskier)
Language                                 : Russian
Default                                  : Yes
Forced                                   : No
Audio #2
ID                                       : 3
Format                                   : AC-3
Format/Info                              : Audio Coding 3
Mode extension                           : CM (complete main)
Format settings, Endianness              : Big
Codec ID                                 : A_AC3
Duration                                 : 1h 4mn
Bit rate mode                            : Constant
Bit rate                                 : 640 Kbps
Channel(s)                               : 6 channels
Channel positions                        : Front: L C R, Side: L R, LFE
Sampling rate                            : 48.0 KHz
Frame rate                               : 31.250 fps (1536 spf)
Compression mode                         : Lossy
Stream size                              : 294 MiB (14%)
Title                                    : ENG
Language                                 : English
Default                                  : No
Forced                                   : No
Text
ID                                       : 4
Format                                   : UTF-8
Codec ID                                 : S_TEXT/UTF8
Codec ID/Info                            : UTF-8 Plain Text
Duration                                 : 1h 1mn
Bit rate                                 : 60 bps
Count of elements                        : 860
Stream size                              : 27.1 KiB (0%)
Title                                    : ENG
Language                                 : English
Default                                  : No
Forced                                   : No

Скриншоты

Вне форума [Профиль] [ЛС]
Показать сообщения:    
Ответить на тему

Текущее время: Сегодня 00:17

Часовой пояс: GMT + 3



Вы не можете начинать темы
Вы не можете отвечать на сообщения
Вы не можете редактировать свои сообщения
Вы не можете удалять свои сообщения
Вы не можете голосовать в опросах
Вы не можете прикреплять файлы к сообщениям
Вы не можете скачивать файлы