Сегодня идет свободное скачивание без начисления Download

Расследования Мердока / Рождественская серия / Murdoch Mysteries / A Merry Murdoch Christmas (Дон МакКатчен, Харви Кросслэнд, Лори Линд) [2015, Драма, криминал, детектив, WEB-DL 720p] VO (DexterTV) + Original + Rus Sub + Eng Sub

Ответить на тему
 
Автор
Сообщение

Omen ®

Стаж: 5 лет 7 месяцев

Сообщений: 185412

Торрент-статистика

Пост 11-Июл-2016 12:00

[Цитировать]

Расследования Мердока / Рождественская серия / Murdoch Mysteries / A Merry Murdoch Christmas
Год выпуска: 2015
Страна: Канада, Великобритания, Shaftesbury Films
Жанр: Драма, криминал, детектив
Продолжительность: 01:28:34
Перевод: Любительский (одноголосый закадровый) DexterTV
Режиссёр: Дон МакКатчен, Харви Кросслэнд, Лори Линд
В ролях: Янник Биссон, Томас Крэйг, Джонни Харрис, Хелен Джой, Лаклан Мердок, Джорджина Рейли, Арвен Хампрейс, Джонатан Уоттон, Найджел Беннетт, Питер Стеббингс
Описание: Близится рождество в Торонто. В городе происходит убийство, и Мердок и его команда приступают к расследованию. Подозрения падают на Крампуса - злого духа Рождества. В то же время Джордж встречает Рождество в одиночку, но почему? Почему Бракенрид ненавидит Рождество? И что приготовила Джулия Уильяму на праздник? Смотрите полнометражный фильм великолепного сериала "Расследования Мердока".
Сэмпл: http://multi-up.com/1109406
Качество: WEB-DL 720p
Контейнер: MKV
Видео: AVC, 1280x720, 16:9, 23.976 fps, 4091 Кбит/с
Аудио: [RUS] MP3, 192 Kbps, 48.0 KHz, 2 channels
Аудио 2: [ENG] MP3, 192 Kbps, 48.0 KHz, 2 channels
Субтитры: русские, английские

MediaInfo

Format : Matroska
Format version : Version 4 / Version 2
File size : 2.77 GiB
Duration : 1h 28mn
Overall bit rate : 4 478 Kbps
Movie name : A.Merry.Murdoch.Christmas.2015.720p.WEB-DL.h264 - [DexterTV]
Encoded date : UTC 2016-07-11 07:24:06
Writing application : mkvmerge v9.1.0 ('Little Earthquakes') 64bit
Writing library : libebml v1.3.3 + libmatroska v1.4.4
Cover : Yes
Attachments : small_cover.jpg / cover.jpg / cover_land.jpg / small_cover_land.jpg
Video
ID : 1
Format : AVC
Format/Info : Advanced Video Codec
Format profile : High@L3.1
Format settings, CABAC : No
Format settings, ReFrames : 2 frames
Codec ID : V_MPEG4/ISO/AVC
Duration : 1h 28mn
Bit rate : 4 091 Kbps
Width : 1 280 pixels
Height : 720 pixels
Display aspect ratio : 16:9
Frame rate mode : Constant
Frame rate : 23.976 (23976/1000) fps
Color space : YUV
Chroma subsampling : 4:2:0
Bit depth : 8 bits
Scan type : Progressive
Bits/(Pixel*Frame) : 0.185
Stream size : 2.53 GiB (91%)
Language : English
Default : Yes
Forced : No
Color range : Limited
Color primaries : BT.709
Transfer characteristics : BT.709
Matrix coefficients : BT.709
Audio #1
ID : 2
Format : MPEG Audio
Format version : Version 1
Format profile : Layer 3
Mode : Joint stereo
Codec ID : A_MPEG/L3
Codec ID/Hint : MP3
Duration : 1h 28mn
Bit rate mode : Constant
Bit rate : 192 Kbps
Channel(s) : 2 channels
Sampling rate : 48.0 KHz
Frame rate : 41.667 fps (1152 spf)
Compression mode : Lossy
Stream size : 122 MiB (4%)
Language : Russian
Default : Yes
Forced : No
Audio #2
ID : 5
Format : MPEG Audio
Format version : Version 1
Format profile : Layer 3
Codec ID : A_MPEG/L3
Codec ID/Hint : MP3
Duration : 1h 28mn
Bit rate mode : Constant
Bit rate : 192 Kbps
Channel(s) : 2 channels
Sampling rate : 48.0 KHz
Frame rate : 41.667 fps (1152 spf)
Compression mode : Lossy
Stream size : 122 MiB (4%)
Writing library : LAME3.99r
Encoding settings : -m s -V 4 -q 0 -lowpass 18.6 -b 192
Language : English
Default : No
Forced : No
Text #1
ID : 3
Format : UTF-8
Codec ID : S_TEXT/UTF8
Codec ID/Info : UTF-8 Plain Text
Duration : 1h 27mn
Bit rate : 132 bps
Count of elements : 1388
Stream size : 84.9 KiB (0%)
Language : Russian
Default : No
Forced : No
Text #2
ID : 4
Format : UTF-8
Codec ID : S_TEXT/UTF8
Codec ID/Info : UTF-8 Plain Text
Duration : 1h 27mn
Bit rate : 100 bps
Count of elements : 1536
Stream size : 64.8 KiB (0%)
Language : English
Default : Yes
Forced : No

Скриншоты

Вне форума [Профиль] [ЛС]
Похожие темы
Форум Тема Автор Торрент Отв. Посл. сообщение
./templates/default/images/folder_dl.gif Обучающее видео Специалист | СЕН3 (CHFI) Расследование хакерских инцидентов (2016) PCRec Omen
1 | 0

0 | 662

25

2016-10-27 01:01
Omen Последнее
Показать сообщения:    
Ответить на тему

Текущее время: Сегодня 20:48

Часовой пояс: GMT + 3



Вы не можете начинать темы
Вы не можете отвечать на сообщения
Вы не можете редактировать свои сообщения
Вы не можете удалять свои сообщения
Вы не можете голосовать в опросах
Вы не можете прикреплять файлы к сообщениям
Вы не можете скачивать файлы