Сегодня идет свободное скачивание без начисления Download

Семья Сопрано / The Sopranos / Сезон: 2 / Серии: 1-13 из 13 (Тимоти Ван Паттен, Джон Паттерсон, Аллен Култер) [2000, Криминальнал, драма, BDRip 1080p 10bit] AVO (Д. Пучков (Goblin)) + MVO (Amedia) + MVO (Fox Crime) + MVO (НТВ) + Original

Ответить на тему
 
Автор
Сообщение

Omen ®

Стаж: 5 лет 6 месяцев

Сообщений: 186946

Торрент-статистика

Пост 10-Июл-2016 12:00

[Цитировать]

Семья Сопрано / The Sopranos
Год выпуска: 1999
Страна: США
Жанр: Криминальнал, драма
Продолжительность: 50 мин.
Перевод 1: Авторский (одноголосый закадровый) Д. Пучков (Goblin)
Перевод 2: Профессиональный (многоголосый закадровый) Amedia
Перевод 3: Профессиональный (многоголосый закадровый) Fox Crime
Перевод 4: Профессиональный (многоголосый закадровый) НТВ
Режиссёр: Тимоти Ван Паттен, Джон Паттерсон, Аллен Култер
В ролях: Эди Фалько, Джэми-Линн Сиглер, Майкл Империоли, Лоррейн Бракко, Тони Сирико, Роберт Айлер, Стив Ван Зандт, Доминик Кьянезе, Аида Туртурро
Описание: Повседневная жизнь современного Крестного отца: его мысли — стремительны, действия — решительны, а юмор — черен. Мафиозный босс Северного Джерси Тони Сопрано успешно справляется с проблемами «Семьи».
Сэмпл: http://sendfile.su/1140298
Качество: BDRip 1080p 10bit
Контейнер: MKV
Видео: x264-10bit, 1920x1080, 16:9, 23.976 fps, ~6.0 Mbps
Аудио 1: Russian - Д. Пучков - Goblin, AC3\5.1\48.0KHz\384 Kbps
Аудио 2: Russian - Amedia, AC3\5.1\48.0KHz\384 Kbps
Аудио 3: Russian - Fox Crime, AC3\2.0\48.0 KHz\192Kbps
Аудио 4: Russian - НТВ, AC3\5.1\48.0 KHz\384Kbps
Аудио 5: English - Original, AAC\5.1\48.0 KHz
Субтитры: softsub (SRT) 1: Rus - Д. Пучков (Goblin), 2: Rus - Amedia, 3: Eng

Список серий

01: Guy Walks Into a Psychiatrist's Office
02: Do Not Resuscitate
03: Toodle-Fucking-Oo
04: Commendatori
05: Big Girls Don't Cry
06: The Happy Wanderer
07: D-Girl
08: Full Leather Jacket
09: From Where to Eternity
10: Bust-Out
11: House Arrest
12: The Knight in White Satin Armor
13: Funhouse

MediaInfo

General
Unique ID : 224262875749730366755625001843363436214 (0xA8B77572BE0D80168730D24D105056B6)
Complete name : L:\TV\The Sopranos\Season 2\The.Sopranos.S02E01.mkv
Format : Matroska
Format version : Version 4 / Version 2
File size : 2.89 GiB
Duration : 49mn 27s
Overall bit rate : 8 360 Kbps
Encoded date : UTC 2016-06-26 09:25:23
Writing application : mkvmerge v9.2.0 ('Photograph') 64bit
Writing library : libebml v1.3.3 + libmatroska v1.4.4
Cover : Yes
Attachments : Cover.jpg
Video
ID : 1
Format : AVC
Format/Info : Advanced Video Codec
Format profile : High 4:4:4 Predictive@L4.1
Format settings, CABAC : Yes
Format settings, ReFrames : 4 frames
Codec ID : V_MPEG4/ISO/AVC
Duration : 49mn 27s
Bit rate : 6 570 Kbps
Width : 1 920 pixels
Height : 1 080 pixels
Display aspect ratio : 16:9
Frame rate mode : Constant
Frame rate : 23.976 (24000/1001) fps
Color space : YUV
Chroma subsampling : 4:4:4
Bit depth : 10 bits
Scan type : Progressive
Bits/(Pixel*Frame) : 0.132
Stream size : 2.27 GiB (79%)
Writing library : x264 core 148 r2665 a01e339
Encoding settings : cabac=1 / ref=4 / deblock=1:-1:-1 / analyse=0x3:0x133 / me=umh / subme=10 / psy=1 / psy_rd=1.00:0.20 / mixed_ref=1 / me_range=24 / chroma_me=1 / trellis=2 / 8x8dct=1 / cqm=0 / deadzone=21,11 / fast_pskip=0 / chroma_qp_offset=3 / threads=8 / lookahead_threads=1 / sliced_threads=0 / nr=0 / decimate=1 / interlaced=0 / bluray_compat=0 / constrained_intra=0 / bframes=6 / b_pyramid=2 / b_adapt=2 / b_bias=0 / direct=3 / weightb=1 / open_gop=0 / weightp=2 / keyint=250 / keyint_min=23 / scenecut=40 / intra_refresh=0 / rc_lookahead=60 / rc=crf / mbtree=1 / crf=20.0 / qcomp=0.60 / qpmin=0 / qpmax=81 / qpstep=4 / ip_ratio=1.40 / aq=1:1.00
Language : English
Default : Yes
Forced : No
Audio #1
ID : 2
Format : AC-3
Format/Info : Audio Coding 3
Mode extension : CM (complete main)
Format settings, Endianness : Big
Codec ID : A_AC3
Duration : 49mn 25s
Bit rate mode : Constant
Bit rate : 384 Kbps
Channel(s) : 6 channels
Channel positions : Front: L C R, Side: L R, LFE
Sampling rate : 48.0 KHz
Frame rate : 31.250 fps (1536 spf)
Compression mode : Lossy
Stream size : 136 MiB (5%)
Title : Goblin
Language : Russian
Default : Yes
Forced : No
Audio #2
ID : 3
Format : AC-3
Format/Info : Audio Coding 3
Mode extension : CM (complete main)
Format settings, Endianness : Big
Codec ID : A_AC3
Duration : 49mn 27s
Bit rate mode : Constant
Bit rate : 384 Kbps
Channel(s) : 6 channels
Channel positions : Front: L C R, Side: L R, LFE
Sampling rate : 48.0 KHz
Frame rate : 31.250 fps (1536 spf)
Compression mode : Lossy
Stream size : 136 MiB (5%)
Title : Amedia
Language : Russian
Default : No
Forced : No
Audio #3
ID : 4
Format : AC-3
Format/Info : Audio Coding 3
Mode extension : CM (complete main)
Format settings, Endianness : Big
Codec ID : A_AC3
Duration : 49mn 25s
Bit rate mode : Constant
Bit rate : 192 Kbps
Channel(s) : 2 channels
Channel positions : Front: L R
Sampling rate : 48.0 KHz
Frame rate : 31.250 fps (1536 spf)
Compression mode : Lossy
Stream size : 67.9 MiB (2%)
Title : Fox Crime
Language : Russian
Default : No
Forced : No
Audio #4
ID : 5
Format : AC-3
Format/Info : Audio Coding 3
Mode extension : CM (complete main)
Format settings, Endianness : Big
Codec ID : A_AC3
Duration : 49mn 25s
Bit rate mode : Constant
Bit rate : 384 Kbps
Channel(s) : 6 channels
Channel positions : Front: L C R, Side: L R, LFE
Sampling rate : 48.0 KHz
Frame rate : 31.250 fps (1536 spf)
Compression mode : Lossy
Stream size : 136 MiB (5%)
Title : NTV
Language : Russian
Default : No
Forced : No
Audio #5
ID : 6
Format : AAC
Format/Info : Advanced Audio Codec
Format profile : LC
Codec ID : A_AAC
Duration : 49mn 27s
Bit rate : 442 Kbps
Channel(s) : 6 channels
Channel positions : Front: L C R, Side: L R, LFE
Sampling rate : 48.0 KHz
Frame rate : 46.875 fps (1024 spf)
Compression mode : Lossy
Delay relative to video : 9ms
Stream size : 156 MiB (5%)
Title : Eng
Language : English
Default : No
Forced : No
Text #1
ID : 7
Format : UTF-8
Codec ID : S_TEXT/UTF8
Codec ID/Info : UTF-8 Plain Text
Duration : 45mn 59s
Bit rate : 106 bps
Count of elements : 774
Stream size : 35.9 KiB (0%)
Title : Goblin
Language : Russian
Default : No
Forced : No
Text #2
ID : 8
Format : UTF-8
Codec ID : S_TEXT/UTF8
Codec ID/Info : UTF-8 Plain Text
Duration : 45mn 57s
Bit rate : 96 bps
Count of elements : 598
Stream size : 32.5 KiB (0%)
Title : Amedia
Language : Russian
Default : No
Forced : No
Text #3
ID : 9
Format : UTF-8
Codec ID : S_TEXT/UTF8
Codec ID/Info : UTF-8 Plain Text
Duration : 45mn 56s
Bit rate : 60 bps
Count of elements : 545
Stream size : 20.3 KiB (0%)
Title : Eng
Language : English
Default : No
Forced : No
Menu
00:00:00.000 : en:00:00:00.000
00:01:39.725 : en:00:01:39.725
00:06:34.394 : en:00:06:34.394
00:14:48.930 : en:00:14:48.930
00:22:42.278 : en:00:22:42.278
00:32:35.996 : en:00:32:35.996
00:41:56.514 : en:00:41:56.514
00:48:24.401 : en:00:48:24.401

Скриншоты






Вне форума [Профиль] [ЛС]
Показать сообщения:    
Ответить на тему

Текущее время: Сегодня 14:34

Часовой пояс: GMT + 3



Вы не можете начинать темы
Вы не можете отвечать на сообщения
Вы не можете редактировать свои сообщения
Вы не можете удалять свои сообщения
Вы не можете голосовать в опросах
Вы не можете прикреплять файлы к сообщениям
Вы не можете скачивать файлы