Сегодня идет свободное скачивание без начисления Download

Мамочкин ангел / המלאך של אימא / Сезон: 1 / Серии: 01-03 из (12?) (Эяль Села) [2016 Израиль, Драма,летектив, TVRip] Original иврит + Rus Subs

Ответить на тему
 
Автор
Сообщение

Omen ®

Стаж: 5 лет 9 месяцев

Сообщений: 184433

Торрент-статистика

Пост 10-Июл-2016 00:00

[Цитировать]

Мамочкин ангел / המלאך של אימא
Год выпуска: 2016
Страна: Израиль
Жанр: Драма,детектив
Продолжительность: ~0:50
Перевод: Субтитры русские,вшитые
Режиссёр: Эяль Села
В ролях: Шарон Штарк, Йехезкель Лазаров, Лирит Балабан, Двир Бенедек, Веред Фельдман, Эяль Розалес, Теила Ишаягу, Йони Мелес, Том Хаги и др.
Описание: Тихий поселок взбудоражен убийством 7-летнего мальчика. История исследует жизнь нескольких семей, навсегда изменившуюся этой ночью. В центре сюжета родители убитого мальчика , мать- полицейский психолог и ее муж, отставной военный, герой войны.Первым подозреваемым становится соседский парень, страдающий психическим расстройством.Затем расследование приводит следователя к молодому художнику и анархисту, его вот-вот готовы обвинить в убийстве. Сомнения в результатах следствия возникают, когда находят еще один труп, почерк убийства идентичен первому. Мать убитого мальчика работает психологом в Управлении тюрьмами, занимается самыми злостными уголовниками, в том числе убийцами детей. Возникает вопрос: способна ли она профессионально помогать своим подопечным после потери собственного ребенка?
Сэмпл: https://yadi.sk/i/fd2wxbpyt9W7b
Качество: TVRip
Формат: AVI
Видео: 704x400 (1.76:1), 25 fps, XviD MPEG-4 ~1994 kbps avg, 0.28 bit/pixel
Аудио: 48 kHz, MPEG Layer 3, 2 ch, ~128.00 kbps avg

MediaInfo

General
Complete name : L:\Downloads\Мамочкин Ангел\MA-01.avi
Format : AVI
Format/Info : Audio Video Interleave
File size : 619 MiB
Duration : 40mn 36s
Overall bit rate : 2 133 Kbps
Writing library : VirtualDub-MPEG2 build 24600/release
Video
ID : 0
Format : MPEG-4 Visual
Format profile : Simple@L5
Format settings, BVOP : No
Format settings, QPel : No
Format settings, GMC : No warppoints
Format settings, Matrix : Default (H.263)
Codec ID : XVID
Codec ID/Hint : XviD
Duration : 40mn 36s
Bit rate : 1 995 Kbps
Width : 704 pixels
Height : 400 pixels
Display aspect ratio : 16:9
Frame rate : 25.000 fps
Color space : YUV
Chroma subsampling : 4:2:0
Bit depth : 8 bits
Scan type : Progressive
Compression mode : Lossy
Bits/(Pixel*Frame) : 0.283
Stream size : 579 MiB (94%)
Writing library : XviD 73
Audio
ID : 1
Format : MPEG Audio
Format version : Version 1
Format profile : Layer 3
Mode : Joint stereo
Mode extension : MS Stereo
Codec ID : 55
Codec ID/Hint : MP3
Duration : 40mn 36s
Bit rate mode : Constant
Bit rate : 128 Kbps
Channel(s) : 2 channels
Sampling rate : 48.0 KHz
Compression mode : Lossy
Stream size : 37.2 MiB (6%)
Alignment : Split accross interleaves
Interleave, duration : 40 ms (1.00 video frame)
Interleave, preload duration : 500 ms

Скриншоты

ВНИМАНИЕ!
Сериал в процессе показа!
Раздача ведётся путём добавления новых серий.
Обычно- 1 серия в неделю.

скрытый текст

"Внимание! Раздача ведётся путём добавления новых серий; при каждом добавлении создётся новый торрент. Чтобы начать докачку новой серии, пользователям необходимо сделать следующее:
(1) остановить скачивание,
(2) удалить старый торрент у себя из клиента (старые серии удалять не надо),
(3) скачать новый торрент и запустить его у себя в клиенте вместо старого, при этом указать клиенту путь в старую папку куда и должно происходить скачивание новых серий.
Ваш клиент при этом должен произвести хеширование (проверку) старой папки (если не производит сам - помогите ему сделать это), и будет докачивать только те серии которых у вас ещё нет. Старые серии при этом не удаляются, а продолжают раздаваться!
Eсли вы уже удалили старые серии, то предотвратить повторную закачку старых серий можно, отжав галочку в соответсвующих местах при запуске нового торрента. По возможности, желательно не удалять старые серии как можно дольше чтобы релизёр не столько продолжал раздавать старые серии, а смог сконцентрироваться на новых.
01-03 (12?) 09.07.16
Релиз:
ПРОСЬБА:ПОЖАЛУЙСТА НЕ УХОДИТЕ С РАЗДАЧИ!! ПОМНИТЕ,СИДИРУЯ, ВЫ ПОМОГАЕТЕ РАЗДАВАТЬ БОЛЬШЕ СЕРИАЛОВ!
Вне форума [Профиль] [ЛС]
Показать сообщения:    
Ответить на тему

Текущее время: Сегодня 03:14

Часовой пояс: GMT + 3



Вы не можете начинать темы
Вы не можете отвечать на сообщения
Вы не можете редактировать свои сообщения
Вы не можете удалять свои сообщения
Вы не можете голосовать в опросах
Вы не можете прикреплять файлы к сообщениям
Вы не можете скачивать файлы