Сегодня идет свободное скачивание без начисления Download

Любовницы / Mistresses (US) / Сезон: 3 / Серии: 1-13 из 13 (Константин Макрис, Чери Ноулан, Дэвид Пэймер) [2015, Драма, WEB-DL 720p] Dub (Невафильм) + Original

Ответить на тему
 
Автор
Сообщение

Omen ®

Стаж: 5 лет 9 месяцев

Сообщений: 184402

Торрент-статистика

Пост 07-Июл-2016 06:00

[Цитировать]

Любовницы | Mistresses (US)- Год выпуска: 2015
Страна: США
Жанр: Драма
Продолжительность: 00:40:00-Перевод: Профессиональный (дублированный) Невафильм-Режиссёр: Константин Макрис, Чери Ноулан, Дэвид Пэймер
В ролях: Рошелль Эйтс, Джесс Макаллан, Юнжин Ким, Корина Мессиа, Эрик Стоклин, Эшли Ньюбро, Темина Санни, Рики Уиттл, Джейден Уайт, Бретт Такер-Описание: Американский драматический сериал “Любовницы” основан на английском сериале, снятом в 2008 году. Это очередная история о подругах, находящихся в непрекращающихся попытках найти свое женское счастье и раз за разом терпящих разочарование. Главных героинь четверо - они давние хорошие подруги, пережившие вместе немало как радости, так и горя. Каждая из них пытается найти свое место в этой жизни и каждая из них зачастую оказывается в откровенно небезопасном положении, куда её заводит очередная неосторожная связь. Сериал достаточно провокационный, а героини - самоуверенные и амбициозные. Каждая из них, что называется, с характером, что и заводит их часто в затруднительное положение из которого позже приходится быстро искать приемлемый выход.- - --Релиз:
Запись и работа со звуком: SerGV
Качество: WEB-DL 720p
Формат: MPEG-4 AVC
Аудио кодек: AC3
Видео: MPEG-4 AVC, ~4037 kbps, 1280x720 (16:9), 25.000 fps, 0.175 bit/pixel
Аудио #1: Russian: 48 kHz, AC3, 2.0 (L,R) ch, ~192.00 kbps avg |Дубляж, Невафильм|
Аудио #2: English: 48 kHz, AC3, 3/2 (L,C,R,l,r) + LFE ch, ~384.00 kbps avg
Субтитры: Английские-

MediaInfo

General
Unique ID : 225380744543656027590241965669347086248 (0xA98EC0A28FBED7BD81008B37749DCFA8)
Complete name : ...Mistresses.US.S03E01.Gone.Girl.720p.WEB-DL.Rus.Eng.CasStudio.mkv
Format : Matroska
Format version : Version 4 / Version 2
File size : 1.34 GiB
Duration : 40mn 46s
Overall bit rate : 4 707 Kbps
Movie name : Mistresses US (2015) 3x01 - release by SerGV for CasStudio
Encoded date : UTC 2016-07-06 08:22:55
Writing application : mkvmerge v8.3.0 ('Over the Horizon') 64bit
Writing library : libebml v1.3.1 + libmatroska v1.4.2
Video
ID : 1
Format : AVC
Format/Info : Advanced Video Codec
Format profile : High@L3.1
Format settings, CABAC : No
Format settings, ReFrames : 2 frames
Codec ID : V_MPEG4/ISO/AVC
Duration : 40mn 46s
Bit rate : 4 037 Kbps
Width : 1 280 pixels
Height : 720 pixels
Display aspect ratio : 16:9
Frame rate mode : Constant
Frame rate : 25.000 fps
Original frame rate : 23.976 (24000/1001) fps
Color space : YUV
Chroma subsampling : 4:2:0
Bit depth : 8 bits
Scan type : Progressive
Bits/(Pixel*Frame) : 0.175
Stream size : 1.15 GiB (86%)
Title : Mistresses US, 3x01 - Gone Girl @ release by SerGV for CasStudio
Language : English
Default : Yes
Forced : No
Color range : Limited
Color primaries : BT.709
Transfer characteristics : BT.709
Matrix coefficients : BT.709
Audio #1
ID : 2
Format : AC-3
Format/Info : Audio Coding 3
Mode extension : CM (complete main)
Format settings, Endianness : Big
Codec ID : A_AC3
Duration : 40mn 46s
Bit rate mode : Constant
Bit rate : 192 Kbps
Channel(s) : 2 channels
Channel positions : Front: L R
Sampling rate : 48.0 KHz
Frame rate : 31.250 fps (1536 spf)
Compression mode : Lossy
Stream size : 56.0 MiB (4%)
Title : DD 2.0 @ 192 kbps - Nevafilm
Language : Russian
Default : Yes
Forced : No
Audio #2
ID : 3
Format : AC-3
Format/Info : Audio Coding 3
Mode extension : CM (complete main)
Format settings, Endianness : Big
Codec ID : A_AC3
Duration : 40mn 46s
Bit rate mode : Constant
Bit rate : 384 Kbps
Channel(s) : 6 channels
Channel positions : Front: L C R, Side: L R, LFE
Sampling rate : 48.0 KHz
Frame rate : 31.250 fps (1536 spf)
Compression mode : Lossy
Stream size : 112 MiB (8%)
Title : DD 5.1 @ 384 kbps - Original
Language : English
Default : No
Forced : No
Text
ID : 4
Format : UTF-8
Codec ID : S_TEXT/UTF8
Codec ID/Info : UTF-8 Plain Text
Language : English
Default : No
Forced : No
-

Скриншоты

-
Вне форума [Профиль] [ЛС]
Похожие темы
Форум Тема Автор Торрент Отв. Посл. сообщение
./templates/default/images/folder_dl.gif Разное Виктор Пелевин | Любовь К Трем Цукербринам (2014) [FB2] Omen
1 | 0

0 | 1780

10

2014-09-10 22:31
Omen Последнее
./templates/default/images/folder_dl.gif Приключения и квесты Mahjong Detective: The Stolen Love / Маджонг Детектив. Похищенная Любовь [P] [RUS] (2015) Omen
3 | 0

0 | 1144

20

2015-06-08 21:00
Omen Последнее
./templates/default/images/folder_dl.gif Фильмы Как добраться мне потом отсюда? ([2017 г., Amateur, Blowjob, Dogging, CamRip, 720p] (Любовники) XP1971
1 | 0

0 | 10509

47

2017-07-16 15:30
XP1971 Последнее
Показать сообщения:    
Ответить на тему

Текущее время: Сегодня 08:01

Часовой пояс: GMT + 3



Вы не можете начинать темы
Вы не можете отвечать на сообщения
Вы не можете редактировать свои сообщения
Вы не можете удалять свои сообщения
Вы не можете голосовать в опросах
Вы не можете прикреплять файлы к сообщениям
Вы не можете скачивать файлы