Сегодня идет свободное скачивание без начисления Download

Любовницы / Mistresses (US) / Сезон: 3 / Серии: 1-13 из 13 (Константин Макрис, Чери Ноулан, Дэвид Пэймер) [2015, Драма, WEB-DLRip] Dub (Невафильм) + Original

Ответить на тему
 
Автор
Сообщение

Omen ®

Стаж: 5 лет 7 месяцев

Сообщений: 185427

Торрент-статистика

Пост 06-Июл-2016 18:00

[Цитировать]

Любовницы | Mistresses- Год выпуска: 2014
Страна: США
Жанр: Драма
Продолжительность: 13 х ~ 00:42:00-Перевод: Профессиональный (дублированный) Невафильм-Режиссёр: Константин Макрис, Чери Ноулан, Дэвид Пэймер
В ролях: Алисса Милано, Рошелль Эйтс, Джесс Макаллан, Ким Юнджин, Корина Мессиа, Эрик Стоклин, Эшли Ньюбро, Темина Санни, Джейден Уайт, Бретт Такер и др.-Описание: Американский драматический сериал “Любовницы” основан на английском сериале, снятом в 2008 году. Это очередная история о подругах, находящихся в непрекращающихся попытках найти свое женское счастье и раз за разом терпящих разочарование. Главных героинь четверо - они давние хорошие подруги, пережившие вместе немало как радости, так и горя. Каждая из них пытается найти свое место в этой жизни и каждая из них зачастую оказывается в откровенно небезопасном положении, куда её заводит очередная неосторожная связь. Сериал достаточно провокационный, а героини - самоуверенные и амбициозные. Каждая из них, что называется, с характером, что и заводит их часто в затруднительное положение из которого позже приходится быстро искать приемлемый выход.- -Запись и работа со звуком: SerGV
Рип видео: lipovan-Качество: WEB-DLRip
Формат: AVI
Видео: XviD, 720x400 (16:9), 25,000 fps, ~ 2000 kbps
Аудио 1: AC3, 48 kHz, 2 ch, 192 kbps - Rus
Аудио 2: AC3, 48 kHz, 2 ch, 192 kbps - Eng
Субтитры: отсутствуют-

MediaInfo

Общее
Полное имя : E:\Mistresses.US.S03.WEB-DLRip.CasStudioTV\Mistresses.US.S03E02.WEB-DLRip.CasStudioTV.avi
Формат : AVI
Формат/Информация : Audio Video Interleave
Размер файла : 702 Мбайт
Продолжительность : 40 м.
Общий поток : 2397 Кбит/сек
Программа кодирования : VirtualDubMod 1.5.10.3 (build 2550/release)
Библиотека кодирования : VirtualDubMod build 2550/release
Видео
Идентификатор : 0
Формат : MPEG-4 Visual
Профиль формата : Advanced Simple@L5
Параметр BVOP формата : 1
Параметр QPel формата : Нет
Параметр GMC формата : Без точки перехода
Параметр матрицы формата : Default (MPEG)
Идентификатор кодека : XVID
Идентификатор кодека/Подсказка : XviD
Продолжительность : 40 м.
Битрейт : 1998 Кбит/сек
Ширина : 720 пикселей
Высота : 400 пикселей
Соотношение сторон : 16:9
Частота кадров : 25,000 кадров/сек
Цветовое пространство : YUV
Субдискретизация насыщенности : 4:2:0
Битовая глубина : 8 бит
Тип развёртки : Прогрессивная
Метод сжатия : С потерями
Бит/(Пиксели*Кадры) : 0.278
Размер потока : 585 Мбайт (83%)
Библиотека кодирования : XviD 65
Аудио #1
Идентификатор : 1
Формат : AC-3
Формат/Информация : Audio Coding 3
Расширение режима : CM (complete main)
Параметр Endianness формата : Big
Идентификатор кодека : 2000
Продолжительность : 40 м.
Вид битрейта : Постоянный
Битрейт : 192 Кбит/сек
Каналы : 2 канала
Расположение каналов : Front: L R
Частота : 48,0 КГц
Битовая глубина : 16 бит
Метод сжатия : С потерями
Размер потока : 56,2 Мбайт (8%)
Выравнивание : Разделение по промежуткам
Продолжительность промежутка : 40 мс. (1,00 видеокадр)
Время предзагрузки промежутка : 500 мс.
Аудио #2
Идентификатор : 2
Формат : AC-3
Формат/Информация : Audio Coding 3
Расширение режима : CM (complete main)
Параметр Endianness формата : Big
Идентификатор кодека : 2000
Продолжительность : 40 м.
Вид битрейта : Постоянный
Битрейт : 192 Кбит/сек
Каналы : 2 канала
Расположение каналов : Front: L R
Частота : 48,0 КГц
Битовая глубина : 16 бит
Метод сжатия : С потерями
Размер потока : 56,2 Мбайт (8%)
Выравнивание : Разделение по промежуткам
Продолжительность промежутка : 40 мс. (1,00 видеокадр)
Время предзагрузки промежутка : 500 мс.

Скриншоты

Раздача ведется путем добавления новых серий

Когда раздача ведётся путём добавления новых серий, при каждом добавлении создётся новый торрент. Чтобы начать докачку новой серии, пользователям необходимо сделать следующее:
(1) остановить скачивание,
(2) удалить старый торрент у себя из клиента (старые серии удалять не надо),
(3) скачать новый торрент и запустить его у себя в клиенте вместо старого, при этом указать клиенту путь в старую папку, куда и должно происходить скачивание новых серий.
Ваш клиент при этом должен произвести хеширование (проверку) старой папки (если не производит сам - помогите ему сделать это), и будет докачивать только те серии, которых у вас ещё нет. Старые серии при этом не удаляются, а продолжают раздаваться!
Eсли вы уже удалили старые серии, то предотвратить повторную закачку старых серий можно, отжав галочку в соответсвующих местах при запуске нового торрента. По возможности, желательно не удалять старые серии как можно дольше, чтобы релизёр не столько продолжал раздавать старые серии, а смог сконцентрироваться на новых.
-
Вне форума [Профиль] [ЛС]
Похожие темы
Форум Тема Автор Торрент Отв. Посл. сообщение
./templates/default/images/folder_dl.gif Историческая литература Эдвард Радзинский | Загадки истории. Любовные сумасбродства Джакомо Казановы [2009] [MP3] Omen
1 | 0

0 | 500

1

2013-01-14 20:58
Omen Последнее
./templates/default/images/folder_dl.gif Приключения и квесты Mahjong Detective: The Stolen Love / Маджонг Детектив. Похищенная Любовь [P] [RUS] (2015) Omen
6 | 0

0 | 1081

19

2015-06-08 21:00
Omen Последнее
./templates/default/images/folder_dl.gif Фильмы Как добраться мне потом отсюда? ([2017 г., Amateur, Blowjob, Dogging, CamRip, 720p] (Любовники) XP1971
1 | 0

0 | 10360

44

2017-07-16 15:30
XP1971 Последнее
Показать сообщения:    
Ответить на тему

Текущее время: Сегодня 14:38

Часовой пояс: GMT + 3



Вы не можете начинать темы
Вы не можете отвечать на сообщения
Вы не можете редактировать свои сообщения
Вы не можете удалять свои сообщения
Вы не можете голосовать в опросах
Вы не можете прикреплять файлы к сообщениям
Вы не можете скачивать файлы