Сегодня идет свободное скачивание без начисления Download

Килджой / Киллджойс / Кайфоломы / Killjoys / Сезон: 2 / Серии: 1 из 10 (Крис Грисмер, Паоло Барзмен, Энди Микита) [2016, фантастика, WEB-DL 1080p] MVO (LostFilm) + Original + Eng Subs

Ответить на тему
 
Автор
Сообщение

Omen ®

Стаж: 5 лет 10 месяцев

Сообщений: 184329

Торрент-статистика

Пост 06-Июл-2016 18:00

[Цитировать]

Килджой | Киллджойс | Кайфоломы | Killjoys- Год выпуска: 2016
Страна: Канада
Жанр: фантастика
Продолжительность: ~ 00:44:00-Перевод: Профессиональный (многоголосый закадровый) | LostFilm-Режиссёр: Крис Грисмер, Паоло Барзмен, Энди Микита-В ролях: Том Эллисон, Тамсен МакДонаф, Аарон Эшмор, Роб Стюарт, Ханна Джон-Кэймен, Люк МакФарлейн, Сара Пауэр, Нора МакЛеллан, Морган Келли, Данка Щепанович, Фрэнк Мур-Описание: Обитатели планеты Креш превратили спутники в свои колонии, организовав межпланетное сообщество. За соблюдением закона на всех планетах следят служители правопорядка — Датч и Джон. Несмотря на то, что любое нарушение строго наказывается, Датч готова преступить закон ради достижения цели, а вот её напарник, Джон, наоборот, считает, что насилие — зло и нужно стараться уладить любой конфликт без применения силы. Отношения между главными героями ещё больше осложняются, когда членом команды становится брат Джона, Дэйвин.- Plazik-Цитата:
Цитата:
Звуковая дорожка номер 1 получена наложением выделенных голосов на центр оригинала.
-Качество: WEB-DL 1080p
Контейнер: MKV
Видео: 1920x1080, 23.976 fps, MPEG-4 AVC, ~5000 kbps avg, 0.100 bit/pixel
Аудио: 48 kHz, AC3, 3/2 (L,C,R,l,r) + LFE ch, ~384.00 kbps avg | LostFilm
Аудио: 48 kHz, AC3, 3/2 (L,C,R,l,r) + LFE ch, ~384.00 kbps avg
Субтитры: English, English SDH-

Список серий

01. Датч и настоящая девушка / Dutch and the Real Girl
-

MediaInfo

ОбщееУникальный идентификатор : 255095782033517028262193028751548879519 (0xBFE9A91887423F45BC7F2317AE5A129F)Полное имя : G:\Movies\Killjoys (Season 2) WEB-DL 1080p\Killjoys.S02E01.Dutch.and.the.Real.Girl.1080p.WEB-DL.Rus.Eng.HDCLUB.mkvФормат : MatroskaВерсия формата : Version 4 / Version 2Размер файла : 1,73 ГбайтПродолжительность : 42 м.Общий поток : 5876 Кбит/секНазвание фильма : Киллджойс / Killjoys (2016) S02E01 Датч и настоящая девушка / Dutch and the Real GirlДата кодирования : UTC 2016-07-04 17:22:40Программа кодирования : mkvmerge v9.2.0 ('Photograph') 64bitБиблиотека кодирования : libebml v1.3.3 + libmatroska v1.4.4Обложка : YesAttachments : cover.jpg
ВидеоИдентификатор : 1Формат : AVCФормат/Информация : Advanced Video CodecПрофиль формата : High@L4Параметр CABAC формата : ДаПараметр ReFrames формата : 4 кадраИдентификатор кодека : V_MPEG4/ISO/AVCПродолжительность : 42 м.Битрейт : 4991 Кбит/секШирина : 1920 пикселейВысота : 1080 пикселейСоотношение сторон : 16:9Режим частоты кадров : ПостоянныйЧастота кадров : 23,976 (24000/1001) кадра/секЦветовое пространство : YUVСубдискретизация насыщенности : 4:2:0Битовая глубина : 8 битТип развёртки : ПрогрессивнаяБит/(Пиксели*Кадры) : 0.100Размер потока : 1,47 Гбайт (85%)Заголовок : MPEG-4 AVC @ ~5000 Kbps - iTunesЯзык : EnglishDefault : ДаForced : НетЦветовой диапазон : LimitedОсновные цвета : BT.709Характеристики трансфера : BT.709Коэффициенты матрицы : BT.709
Аудио #1Идентификатор : 2Формат : AC-3Формат/Информация : Audio Coding 3Расширение режима : CM (complete main)Параметр Endianness формата : BigИдентификатор кодека : A_AC3Продолжительность : 42 м.Вид битрейта : ПостоянныйБитрейт : 384 Кбит/секКаналы : 6 каналовРасположение каналов : Front: L C R, Side: L R, LFEЧастота : 48,0 КГцЧастота кадров : 31,250 кадров/сек (1536 spf)Метод сжатия : С потерямиРазмер потока : 116 Мбайт (7%)Заголовок : AC3 5.1 @ 384 Kbps - Многоголосый закадровый, LostFilmЯзык : RussianDefault : ДаForced : Нет
Аудио #2Идентификатор : 3Формат : AC-3Формат/Информация : Audio Coding 3Расширение режима : CM (complete main)Параметр Endianness формата : BigИдентификатор кодека : A_AC3Продолжительность : 42 м.Вид битрейта : ПостоянныйБитрейт : 384 Кбит/секКаналы : 6 каналовРасположение каналов : Front: L C R, Side: L R, LFEЧастота : 48,0 КГцЧастота кадров : 31,250 кадров/сек (1536 spf)Метод сжатия : С потерямиРазмер потока : 116 Мбайт (7%)Заголовок : AC3 5.1 @ 384 KbpsЯзык : EnglishDefault : НетForced : Нет
Текст #1Идентификатор : 4Формат : UTF-8Идентификатор кодека : S_TEXT/UTF8Идентификатор кодека/Информация : UTF-8 Plain TextЗаголовок : SRT - FullЯзык : EnglishDefault : НетForced : Нет
Текст #2Идентификатор : 5Формат : UTF-8Идентификатор кодека : S_TEXT/UTF8Идентификатор кодека/Информация : UTF-8 Plain TextЗаголовок : SRT - Full SDHЯзык : EnglishDefault : НетForced : Нет
-

Скриншоты

-

Внимание! Раздача ведётся путём добавления новых серий!

Внимание! Раздача ведётся путём добавления новых серий; при каждом добавлении создётся новый торрент. Чтобы начать докачку новой серии, пользователям необходимо сделать следующее: (1) остановить скачивание, (2) удалить старый торрент у себя из клиента (старые серии удалять не надо), (3) скачать новый торрент и запустить его у себя в клиенте вместо старого, при этом указать клиенту путь в старую папку куда и должно происходить скачивание новых серий.
Ваш клиент при этом должен произвести хеширование (проверку) старой папки (если не производит сам - помогите ему сделать это), и будет докачивать только те серии которых у вас ещё нет. Старые серии при этом не удаляются, а продолжают раздаваться!
Eсли вы уже удалили старые серии, то предотвратить повторную закачку старых серий можно, отжав галочку в соответсвующих местах при запуске нового торрента.-
Вне форума [Профиль] [ЛС]
Показать сообщения:    
Ответить на тему

Текущее время: Сегодня 04:08

Часовой пояс: GMT + 3



Вы не можете начинать темы
Вы не можете отвечать на сообщения
Вы не можете редактировать свои сообщения
Вы не можете удалять свои сообщения
Вы не можете голосовать в опросах
Вы не можете прикреплять файлы к сообщениям
Вы не можете скачивать файлы