Сегодня идет свободное скачивание без начисления Download

Вспомнить все связи / Scrotall Recall / Сезон: 1 / Серии: 1-2 из 6 (Гордон Андерсон, Эллиот Хегарти) [2014, комедия, PDTVRip] Original + Rus Subs (Ron.Studio™)

Ответить на тему
 
Автор
Сообщение

Omen ®

Стаж: 5 лет 9 месяцев

Сообщений: 184433

Торрент-статистика

Пост 04-Июл-2016 15:04

[Цитировать]

Вспомнить все связи / Scrotall Recall
Год выпуска: 2014
Страна: Великобритания
Жанр: комедия
Продолжительность: 00:24:00
Перевод: Субтитры Ron.Studio™
Режиссёр: Гордон Андерсон, Эллиот Хегарти
В ролях: Джонни Флинн, Антония Томас, Дэниэл Ингс, Ричард Томсон, Ханна Бритланд, Джош МакГуайр, Джессика Эллерби, Айми Паркес, Розали Крэйг, Вики Пеппердин
Описание: Выяснив, что он подхватил венерическое заболевание, Дилан должен связаться с каждой девушкой, с которой он занимался сексом, чтобы сообщить им плохие новости.
Ссылка на предыдущие и альтернативные раздачи: раздается впервые
Сэмпл: http://multi-up.com/1108031
Качество: PDTVRip
Формат: MP4
Видео: AVC, 720х404 (16:9), 25 fps, 1000 kbps, 0.123 bit/pixel
Аудио: AAC, 48 kHz, 2 ch, 140 kbps
Субтитры: Внешние *.SRT

MediaInfo

General
Complete name : C:\Scrotal.Recall.s01e01.mp4
Format : MPEG-4
Format profile : Base Media
Codec ID : isom
File size : 176 MiB
Duration : 24mn 4s
Overall bit rate mode : Variable
Overall bit rate : 1 023 Kbps
Video
ID : 1
Format : AVC
Format/Info : Advanced Video Codec
Format profile : High@L3.1
Format settings, CABAC : Yes
Format settings, ReFrames : 5 frames
Codec ID : avc1
Codec ID/Info : Advanced Video Coding
Duration : 24mn 4s
Bit rate : 893 Kbps
Width : 720 pixels
Height : 404 pixels
Display aspect ratio : 16:9
Frame rate mode : Constant
Frame rate : 25.000 fps
Color space : YUV
Chroma subsampling : 4:2:0
Bit depth : 8 bits
Scan type : Progressive
Bits/(Pixel*Frame) : 0.123
Stream size : 154 MiB (87%)
Writing library : x264 core 142 r2479 dd79a61
Encoding settings : cabac=1 / ref=5 / deblock=1:0:0 / analyse=0x3:0x113 / me=umh / subme=8 / psy=1 / psy_rd=1.00:0.00 / mixed_ref=1 / me_range=16 / chroma_me=1 / trellis=1 / 8x8dct=1 / cqm=0 / deadzone=21,11 / fast_pskip=1 / chroma_qp_offset=-2 / threads=12 / lookahead_threads=2 / sliced_threads=0 / nr=0 / decimate=1 / interlaced=0 / bluray_compat=0 / constrained_intra=0 / bframes=3 / b_pyramid=2 / b_adapt=2 / b_bias=0 / direct=3 / weightb=1 / open_gop=0 / weightp=2 / keyint=250 / keyint_min=25 / scenecut=40 / intra_refresh=0 / rc_lookahead=50 / rc=crf / mbtree=1 / crf=19.0 / qcomp=0.60 / qpmin=0 / qpmax=69 / qpstep=4 / ip_ratio=1.40 / aq=1:1.00
Matrix coefficients : BT.709
Audio
ID : 2
Format : AAC
Format/Info : Advanced Audio Codec
Format profile : LC
Codec ID : 40
Duration : 24mn 4s
Bit rate mode : Variable
Bit rate : 124 Kbps
Maximum bit rate : 140 Kbps
Channel(s) : 2 channels
Channel positions : Front: L R
Sampling rate : 48.0 KHz
Compression mode : Lossy
Stream size : 21.3 MiB (12%)

Скриншоты

Вне форума [Профиль] [ЛС]
Показать сообщения:    
Ответить на тему

Текущее время: Сегодня 23:25

Часовой пояс: GMT + 3



Вы не можете начинать темы
Вы не можете отвечать на сообщения
Вы не можете редактировать свои сообщения
Вы не можете удалять свои сообщения
Вы не можете голосовать в опросах
Вы не можете прикреплять файлы к сообщениям
Вы не можете скачивать файлы