Сегодня идет свободное скачивание без начисления Download

Гастролёры / Закулисье / Roadies / Сезон: 1 / Серии: 1-2 из 10 (Кэмерон Кроу / Cameron Crowe) [2016 г., Драма, комедия, роуд-сериал, HDTVRip 720p] MVO (Jaskier) + Original

Ответить на тему
 
Автор
Сообщение

Omen ®

Стаж: 5 лет 9 месяцев

Сообщений: 184433

Торрент-статистика

Пост 03-Июл-2016 18:00

[Цитировать]

Закулисье / Roadies- Оригинальное название: Roadies
Русское название: Закулисье
Год выпуска: 2016
Страна: США
Жанр: Драма, комедия, роуд-сериал
Продолжительность: ~00:59:00-Перевод: Профессиональный (многоголосый закадровый) Студия Jaskier присутствует ненормативная лексика
Субтитры: Нет-Режиссёр: Кэмерон Кроу-В ролях: Люк Уилсон, Карла Гуджино, Имоджен Путс, Киша Касл-Хьюз, Питер Кэмбор, Кристофер Бакус, Танк Сейд, Эли Генри и другие-Описание: Многим зрителям кажется, что жизнь музыкантов не такая уж и сложная. Они получают свою славу, уезжают на гастроли, делают все возможное, чтобы собрать как можно больше денег на своих концертах. Однако мало кто догадывается, что музыкантам все дается порой с огромным трудом. Да и к тому же они трудятся над подготовкой своего выступления не одни. Мало того, что им помогают гримеры и костюмеры, так еще и с техникой надо разобраться, чтобы музыка звучала чисто и красиво. Вот об одной из таких технических групп, обеспечивающих успех одного известного рок-бэнда, пойдет речь в этом интереснейшем документальном сериале.-Сэмпл-Качество: HDTVRip 720p
Формат: MKV
Видео кодек: h.264
Аудио кодек: AC3
Видео: H.264, 1280x720 (16:9), 23.976 fps, 4790 kbps, 0.214 bit/pixel-Аудио 1: Dolby AC3 48000Hz stereo 192 Kbps Русский
Аудио 2: Dolby AC3 48000Hz 6ch 384 Kbps Оригинал (Английский)-

MediaInfo

Код:
General
Unique ID                      : 193351562749469798255736023280691697684 (0x9176280D10279877B86E38972067D814)
Complete name                  : Z:\HD\Roadies. Season 1 (HDTVRip l 720p l Jaskier)\Roadies.S01E01.720p.HDTV.x264-JASKiER.mkv
Format                         : Matroska
Format version                 : Version 1
File size                      : 2.19 GiB
Duration                       : 58mn 0s
Overall bit rate               : 5 412 Kbps
Encoded date                   : UTC 2016-06-17 22:07:27
Writing application            : mkvmerge v2.3.0 ('Freak U') built on Sep  8 2008 18:32:16
Writing library                : libebml v0.7.7 + libmatroska v0.8.1
Video
ID                             : 1
Format                         : AVC
Format/Info                    : Advanced Video Codec
Format profile                 : High@L4.1
Format settings, CABAC         : Yes
Format settings, ReFrames      : 5 frames
Codec ID                       : V_MPEG4/ISO/AVC
Duration                       : 58mn 0s
Bit rate                       : 4 728 Kbps
Width                          : 1 280 pixels
Height                         : 720 pixels
Display aspect ratio           : 16:9
Frame rate                     : 23.976 fps
Color space                    : YUV
Chroma subsampling             : 4:2:0
Bit depth                      : 8 bits
Scan type                      : Progressive
Bits/(Pixel*Frame)             : 0.214
Stream size                    : 1.92 GiB (87%)
Writing library                : x264 core 148 r2692 64f4e24
Encoding settings              : cabac=1 / ref=5 / deblock=1:0:0 / analyse=0x3:0x113 / me=umh / subme=8 / psy=1 / psy_rd=1.00:0.00 / mixed_ref=1 / me_range=16 / chroma_me=1 / trellis=1 / 8x8dct=1 / cqm=0 / deadzone=21,11 / fast_pskip=1 / chroma_qp_offset=-2 / threads=22 / lookahead_threads=3 / sliced_threads=0 / nr=0 / decimate=1 / interlaced=0 / bluray_compat=0 / constrained_intra=0 / bframes=3 / b_pyramid=2 / b_adapt=2 / b_bias=0 / direct=3 / weightb=1 / open_gop=0 / weightp=2 / keyint=250 / keyint_min=23 / scenecut=40 / intra_refresh=0 / rc_lookahead=50 / rc=crf / mbtree=1 / crf=18.0 / qcomp=0.60 / qpmin=0 / qpmax=69 / qpstep=4 / ip_ratio=1.40 / aq=1:1.00
Default                        : Yes
Forced                         : No
Matrix coefficients            : BT.709-5, BT.1361, IEC 61966-2-4 709, SMPTE RP177
Audio #1
ID                             : 2
Format                         : AC-3
Format/Info                    : Audio Coding 3
Mode extension                 : CM (complete main)
Format settings, Endianness    : Big
Codec ID                       : A_AC3
Duration                       : 58mn 0s
Bit rate mode                  : Constant
Bit rate                       : 192 Kbps
Channel(s)                     : 2 channels
Channel positions              : Front: L R
Sampling rate                  : 48.0 KHz
Bit depth                      : 16 bits
Compression mode               : Lossy
Stream size                    : 79.7 MiB (4%)
Language                       : Russian
Default                        : Yes
Forced                         : No
Audio #2
ID                             : 3
Format                         : AC-3
Format/Info                    : Audio Coding 3
Mode extension                 : CM (complete main)
Format settings, Endianness    : Big
Codec ID                       : A_AC3
Duration                       : 58mn 0s
Bit rate mode                  : Constant
Bit rate                       : 384 Kbps
Channel(s)                     : 6 channels
Channel positions              : Front: L C R, Side: L R, LFE
Sampling rate                  : 48.0 KHz
Bit depth                      : 16 bits
Compression mode               : Lossy
Stream size                    : 159 MiB (7%)
Language                       : English
Default                        : No
Forced                         : No
[/spoiler]

Скриншоты



Внимание! Раздача ведётся путём добавления новых серий.

Внимание! Раздача ведётся путём добавления новых серий; при каждом добавлении создётся новый торрент. Чтобы начать докачку новой серии, пользователям необходимо сделать следующее:
  • Остановить скачивание.
  • Удалить старый торрент у себя из клиента (старые серии удалять не надо).
  • Скачать новый торрент и запустить его у себя в клиенте вместо старого, при этом указать клиенту путь в старую папку куда и должно происходить скачивание новых серий.
    Ваш клиент при этом должен произвести хеширование (проверку) старой папки (если не производит сам - помогите ему сделать это), и будет докачивать только те серии которых у вас ещё нет. Старые серии при этом не удаляются, а продолжают раздаваться!
    Eсли вы уже удалили старые серии, то предотвратить повторную закачку старых серий можно, отжав галочку в соответсвующих местах при запуске нового торрента. По возможности, желательно не удалять старые серии как можно дольше чтобы релизёр не столько продолжал раздавать старые серии, а смог сконцентрироваться на новых.

Ссылка на предыдущие и альтернативные раздачи

[url=tracker.php?f=189,2366&nm=Roadies+2016]http:///*spam*//forum/tracker.php?f=189,2366&nm=Roadies+2016[/url]
Вне форума [Профиль] [ЛС]
Показать сообщения:    
Ответить на тему

Текущее время: Сегодня 12:05

Часовой пояс: GMT + 3



Вы не можете начинать темы
Вы не можете отвечать на сообщения
Вы не можете редактировать свои сообщения
Вы не можете удалять свои сообщения
Вы не можете голосовать в опросах
Вы не можете прикреплять файлы к сообщениям
Вы не можете скачивать файлы