Сегодня идет свободное скачивание без начисления Download

Тайны любви / Les mysteres de l\'amour / Сезон: 5 / Серии: 1-2,6,8 из 26 (Винсент Ван Море/Vincent Van Moere, Дан Окко/Dan Occo) [2013, Мелодрама, TVRip] Original + Sub

Ответить на тему
 
Автор
Сообщение

Omen ®

Стаж: 5 лет 9 месяцев

Сообщений: 184393

Торрент-статистика

Пост 01-Июл-2016 18:00

[Цитировать]

Тайны любви / Les mysteres de l'amour- -Год выпуска: 2013
Страна: Франция
Жанр: Мелодрама
Продолжительность: 00:45:00-Перевод: Субтитры-Режиссёр: Винсент Ван Море/Vincent Van Moere, Дан Окко/Dan Occo-В ролях: Элен (Элен Ролле), Жанна (Изабель Буис), Николя (Патрик Пюидеба), Бенедикт (Лор Гибер), Жозе (Филипп Вассёр), Кристиан (Себастьен Рок), Лали (Лали Меньян), Джимми (Том Шахт), Ольга (Маша Поликарпова), Ингрид (Кароль Дешантр), Руди (Лакшан Абенаяк), Фанни (Эльза Эсну), Хлоя (Марион Югенин), Питер (Серж Жискьер)-Описание: Продолжение сериалов "Элен и ребята", "Грёзы любви" и "Каникулы любви". Прошли годы, а компания друзей до сих пор вместе. Они вернулись в Париж, в их жизни уже нет места музыке и глупым посиделкам в кафе у Альфредо. Теперь у них все по-взрослому. И если для одних все складывается удачно, то другие не могут свести концы с концами. У Жозе с Бенедикт свой ресторанный бизнес, Николя занимается фотографией, Кристиан же пытается найти себя после разрыва с Джоанной. Много приключений самого разного свойства поджидает друзей в Париже.--Сэмпл: http://sendfile.su/1246821-Качество: TVRip
Формат: AVI-Видео: MPEG-4 AVC, 1024x576 (16:9), 25.000 fps, ~1800 kbps avg, 0.112 bit/pixel
Аудио: 48 kHz, MP3, 2/0 (L,R) ch, ~128 kbps avg-

Список серий

01. Свадебная суета (Bruits de noce)
02. Союзы (Des unions)
06. Приступы безумия (Coups de folies)
08. Мужчина и ребенок (L'homme et l'enfant)
-

MediaInfo

Complete name : C:\Users\1\Desktop\Тайны любви\LMDLA s5e01 - Bruits de noce.avi
Format : AVI
Format/Info : Audio Video Interleave
File size : 601 MiB
Duration : 43mn 20s
Overall bit rate : 1 940 Kbps
Writing application : VirtualDubMod 1.5.10.3 | www.virtualdub-fr.org || (build 2550/release)
Writing library : VirtualDubMod build 2550/release
Video
ID : 0
Format : AVC
Format/Info : Advanced Video Codec
Format profile : High@L3.1
Format settings, CABAC : Yes
Format settings, ReFrames : 4 frames
Codec ID : h264
Duration : 43mn 20s
Bit rate : 1 802 Kbps
Width : 1 024 pixels
Height : 576 pixels
Display aspect ratio : 16:9
Frame rate mode : Variable
Frame rate : 25.000 fps
Color space : YUV
Chroma subsampling : 4:2:0
Bit depth : 8 bits
Scan type : Progressive
Bits/(Pixel*Frame) : 0.122
Stream size : 559 MiB (93%)
Color range : Full
Matrix coefficients : SMPTE 240M
Audio
ID : 1
Format : MPEG Audio
Format version : Version 1
Format profile : Layer 3
Codec ID : 55
Codec ID/Hint : MP3
Duration : 43mn 20s
Bit rate mode : Constant
Bit rate : 128 Kbps
Channel(s) : 2 channels
Sampling rate : 48.0 KHz
Compression mode : Lossy
Stream size : 39.7 MiB (7%)
Alignment : Aligned on interleaves
Interleave, duration : 40 ms (1.00 video frame)
Interleave, preload duratio : 504 ms
Writing library : LAME3.99r
Encoding settings : -m s -V 4 -q 2 -lowpass 17 -b 128

Скриншоты

Вне форума [Профиль] [ЛС]
Похожие темы
Форум Тема Автор Торрент Отв. Посл. сообщение
./templates/default/images/folder_dl.gif Приключения и квесты Secrets of the Dark: The Flower of Shadow Collector\'s Edition / Тайны Тьмы: Цветок Теней. Коллекционное издание [P] [RUS / ENG] (2014) Omen
5 | 0

0 | 1368

19

2015-06-11 12:04
Omen Последнее
Показать сообщения:    
Ответить на тему

Текущее время: Сегодня 23:29

Часовой пояс: GMT + 3



Вы не можете начинать темы
Вы не можете отвечать на сообщения
Вы не можете редактировать свои сообщения
Вы не можете удалять свои сообщения
Вы не можете голосовать в опросах
Вы не можете прикреплять файлы к сообщениям
Вы не можете скачивать файлы