Сегодня идет свободное скачивание без начисления Download

Дорожная команда / Гастролёры / Roadies / Сезон 1 / Серии 1-2 (10) (Кэмерон Кроу) [2016, драма, комедия, музыка, HDTVRip] MVO (AlexFilm)

Ответить на тему
 
Автор
Сообщение

Omen ®

Стаж: 5 лет 10 месяцев

Сообщений: 184329

Торрент-статистика

Пост 01-Июл-2016 00:03

[Цитировать]

-Дорожная команда / Roadies
1 сезон, 1-2 серии
- Год выпуска: 2016
Страна: США
Жанр: драма, комедия, музыка
Продолжительность: ~60 мин
Озвучание: профессиональное многоголосое закадровое (AlexFilm)
Вид субтитров: нет-Режиссер: Кэмерон Кроу
В ролях: Люк Уилсон, Карла Гуджино, Имоджен Путс, Рейф Сполл, Киша Касл-Хьюз, Питер Кэмбор, Машин Ган Келли, Кристофер Бакус, Танк Сейд, Рон Уайт-Описание: Сериал рассказывает о команде специалистов, обеспечивающих техническую поддержку во время тура одной успешной рок-группы.-Релиз:
Перевод: Константин Кривоногов
Монтаж и сведение звука: Михаил Суслов, Михаил Шорыгин
Роли озвучивали:
  • Евгения Тихонова
  • Таисия Тришина
  • Михаил Суслов
  • Владимир Курдов
  • Валерий Смекалов
  • Алексей Никитин-Сэмпл: http://sendfile.su/1243798- -Внимание! В сериале присутствуют сцены с обнаженной натурой и ненормативная лексика!-Качество: HDTVRip
    Формат: AVI
    Видео: 720x400 (1.80:1), 23.976 fps, XviD ~1400 kbps avg, 0.20 bit/pixel
    Аудио Rus: 48 kHz, MPEG Layer 3, 2 ch, ~128.00 kbps avg
    Аудио Eng: 48 kHz, MPEG Layer 3, 2 ch, ~128.00 kbps avg-

Скриншоты

MediaInfo

Формат : AVI
Формат/Информация : Audio Video Interleave
Размер файла : 695 Мбайт
Продолжительность : 58 м.
Общий поток : 1672 Кбит/сек
Название фильма : Roadies 1x01 @ AlexFilm
Программа кодирования : VirtualDubMod 1.5.10.2 (build 2540/release)
Библиотека кодирования : VirtualDubMod build 2540/release
Видео
Идентификатор : 0
Формат : MPEG-4 Visual
Профиль формата : Advanced Simple@L5
Параметр BVOP формата : Да
Параметр QPel формата : Нет
Параметр GMC формата : Без точки перехода
Параметр матрицы формата : Default (MPEG)
Идентификатор кодека : DX50
Идентификатор кодека/Подсказка : DivX 5
Продолжительность : 58 м.
Битрейт : 1402 Кбит/сек
Ширина : 720 пикселей
Высота : 400 пикселей
Соотношение сторон : 16:9
Частота кадров : 23,976 кадра/сек
Цветовое пространство : YUV
Субдискретизация насыщенности : 4:2:0
Битовая глубина : 8 бит
Тип развёртки : Прогрессивная
Метод сжатия : С потерями
Бит/(Пиксели*Кадры) : 0.203
Размер потока : 583 Мбайт (84%)
Библиотека кодирования : XviD 64
Аудио #1
Идентификатор : 1
Формат : MPEG Audio
Версия формата : Version 1
Профиль формата : Layer 3
Режим : Joint stereo
Расширение режима : MS Stereo
Идентификатор кодека : 55
Идентификатор кодека/Подсказка : MP3
Продолжительность : 58 м.
Вид битрейта : Постоянный
Битрейт : 128 Кбит/сек
Каналы : 2 канала
Частота : 48,0 КГц
Метод сжатия : С потерями
Размер потока : 53,2 Мбайт (8%)
Выравнивание : Соединение по промежуткам
Продолжительность промежутка : 42 мс. (1,00 видеокадр)
Время предзагрузки промежутка : 504 мс.
Заголовок : Russian (AlexFilm)
Библиотека кодирования : LAME3.99r
Настройки программы : -m j -V 4 -q 3 -lowpass 18 -b 128
Аудио #2
Идентификатор : 2
Формат : MPEG Audio
Версия формата : Version 1
Профиль формата : Layer 3
Режим : Joint stereo
Идентификатор кодека : 55
Идентификатор кодека/Подсказка : MP3
Продолжительность : 58 м.
Вид битрейта : Постоянный
Битрейт : 128 Кбит/сек
Каналы : 2 канала
Частота : 48,0 КГц
Метод сжатия : С потерями
Размер потока : 53,2 Мбайт (8%)
Выравнивание : Соединение по промежуткам
Продолжительность промежутка : 42 мс. (1,00 видеокадр)
Время предзагрузки промежутка : 504 мс.
Заголовок : English
Библиотека кодирования : LAME3.90.3

Внимание! Раздача ведётся путём добавления новых серий

Внимание! Раздача ведётся путём добавления новых серий; при каждом добавлении создаётся новый торрент. Чтобы начать докачку новой серии, пользователям необходимо сделать следующее:
(1) остановить скачивание,
(2) удалить старый торрент у себя из клиента (старые серии удалять не надо),
(3) скачать новый торрент и запустить его у себя в клиенте вместо старого, при этом указать клиенту путь в старую папку куда и должно происходить скачивание новых серий.
Ваш клиент при этом должен произвести хеширование (проверку) старой папки (если не производит сам - помогите ему сделать это), и будет докачивать только те серии которых у вас ещё нет. Старые серии при этом не удаляются, а продолжают раздаваться!
Eсли вы уже удалили старые серии, то предотвратить повторную закачку старых серий можно, отжав галочку в соответствующих местах при запуске нового торрента. По возможности, желательно не удалять старые серии как можно дольше чтобы релизёр не столько продолжал раздавать старые серии, а смог сконцентрироваться на новых.
--
Вне форума [Профиль] [ЛС]
Показать сообщения:    
Ответить на тему

Текущее время: Сегодня 05:14

Часовой пояс: GMT + 3



Вы не можете начинать темы
Вы не можете отвечать на сообщения
Вы не можете редактировать свои сообщения
Вы не можете удалять свои сообщения
Вы не можете голосовать в опросах
Вы не можете прикреплять файлы к сообщениям
Вы не можете скачивать файлы