Сегодня идет свободное скачивание без начисления Download

Чип и Дейл спешат на помощь / Chip and Dale Rescue Rangers / Сезон: 1 / Серии: 1-5 (Джон Кимболл, Роб Замбони / John Kimball, Bob Zamboni) [1989 г., Приключения, комедия, WEB-DL 1080p] Dub (ТСК) + Ukr (1+1) + Eng

Ответить на тему
 
Автор
Сообщение

Omen ®

Стаж: 5 лет

Сообщений: 190529

Торрент-статистика

Пост 30-Июн-2016 00:03

[Цитировать]

Чип и Дейл спешат на помощь / Chip and Dale Rescue Rangers- Оригинальное название: Chip and Dale Rescue Rangers
Русское название: Чип и Дейл спешат на помощь
Год выпуска: 1989
Страна: США
Жанр: Приключения, комедия
Продолжительность серии: 20 минут (серия)
Перевод:
  • Профессиональный (полное дублирование) ТСК (Телевизионная Студия Кинопрограмм) ,
  • Профессиональный (полное дублирование) LeDoyen по заказу 1+1
    Субтитры: нет
    Сэмпл: скачать-Производтсво: Walt Disney Studios
    Режиссёр: Джон Кимболл, Роб Замбони-Роли озвучивали: Кори Бертон, Питер Каллен, Джим Каммингс, Тресс МакНилл, Роб Полсен, Дэнни Гэнс и другие-Описание: Приключенческий мультсериал, созданный студией Уолта Диснея. Авторы идеи — Алан Заслов и Тэд Стоун. Главными героями мультсериала являются переработанные классические диснеевские персонажи — антропоморфные бурундуки Чип и Дейл, а также трое их друзей — мышка-изобретательница Гайка, крыса Рокфор и его друг, муха по имени Вжик — вместе образующие «Команду Спасателей» (англ. Rescue Rangers).
    Впервые данная концепция была показана в США 27 августа 1988 года в превью-эпизоде «Catteries Not Included». Собственно сам мультсериал в США начал выходить в эфир с 4 марта 1989 года на канале «The Disney Channel» обычно в паре с «Утиными историями». Последняя серия была показана 19 ноября 1990 года. Начиная с 18 сентября 1990 года в США транслировался повтор шоу. Кроме того, повторы выходили до 3 сентября 1993 года в рамках программы «The Disney Afternoon».
    В общей сложности было показано 65 серий, пять из которых представляют собой разделенный на несколько частей полнометражный мультфильм «Rescue Rangers: To The Rescue», которые выходили с порядковым номером серий с 14 по 18.- -Доп. информация: Никто не ожидал, а это случилось! Ремастированная версия в 1080р с iTunes. Русский звук взят с последнего показа на СТС. Украинский звук взят с исходников 1+1. Спасибо ALEKS KV и SerGoLeOne за синхронизацию дорожек. Порядок песен будет придерживаться первого показа на ТВ. Украинские звуки предоставил andic.-Качество: WEB-DL 1080p
    Формат: MKV
    Видео кодек: h264
    Аудио кодек: AC3, AAC
    Видео: MPEG4 Video (H264) 1440x1080 23.976fps ~4500Kbps
    Аудио 1 (RUS): Dolby AC3 48000Hz stereo 192Kbps,
    Аудио 2 (UKR): Dolby AC3 48000Hz stereo 192Kbps,
    Аудио 3 (ENG): AAC 48000Hz stereo 120Kbps

Скриншоты:



-

Список серий:

01. To The Rescue. Part 1
02. To The Rescue. Part 2
03. To The Rescue. Part 3
04. Rescue Rangers To The Rescue. Part 4
05. Rescue Rangers To The Rescue. Part 5

MI

Код:
General
Unique ID                   : 197523871192171432311764248297932959035 (0x9499B6BD4D79B3C3BE7D471571F9AD3B)
Complete name               : Z:\HD\Chip 'n Dale - Rescue Rangers. Complete Series (WEB-DL l 1080p l SerGoLeOne)\01. To The Rescue. Part 1.mkv
Format                      : Matroska
Format version              : Version 1
File size                   : 834 MiB
Duration                    : 22mn 52s
Overall bit rate            : 5 100 Kbps
Encoded date                : UTC 2016-06-23 01:03:00
Writing application         : mkvmerge v2.3.0 ('Freak U') built on Sep  8 2008 18:32:16
Writing library             : libebml v0.7.7 + libmatroska v0.8.1
Video
ID                          : 1
Format                      : AVC
Format/Info                 : Advanced Video Codec
Format profile              : High@L4
Format settings, CABAC      : Yes
Format settings, ReFrames   : 5 frames
Codec ID                    : V_MPEG4/ISO/AVC
Duration                    : 22mn 52s
Width                       : 1 440 pixels
Height                      : 1 080 pixels
Display aspect ratio        : 4:3
Frame rate mode             : Constant
Frame rate                  : 23.976 fps
Color space                 : YUV
Chroma subsampling          : 4:2:0
Bit depth                   : 8 bits
Scan type                   : Progressive
Default                     : Yes
Forced                      : No
Color range                 : Limited
Color primaries             : BT.709
Transfer characteristics    : BT.709
Matrix coefficients         : BT.709
Audio #1
ID                          : 2
Format                      : AC-3
Format/Info                 : Audio Coding 3
Mode extension              : CM (complete main)
Format settings, Endianness : Big
Codec ID                    : A_AC3
Duration                    : 22mn 52s
Bit rate mode               : Constant
Bit rate                    : 192 Kbps
Channel(s)                  : 2 channels
Channel positions           : Front: L R
Sampling rate               : 48.0 KHz
Compression mode            : Lossy
Stream size                 : 31.4 MiB (4%)
Language                    : Russian
Default                     : Yes
Forced                      : No
Audio #2
ID                          : 3
Format                      : AC-3
Format/Info                 : Audio Coding 3
Mode extension              : CM (complete main)
Format settings, Endianness : Big
Codec ID                    : A_AC3
Duration                    : 22mn 52s
Bit rate mode               : Constant
Bit rate                    : 192 Kbps
Channel(s)                  : 2 channels
Channel positions           : Front: L R
Sampling rate               : 48.0 KHz
Compression mode            : Lossy
Stream size                 : 31.4 MiB (4%)
Language                    : Ukrainian
Default                     : No
Forced                      : No
Audio #3
ID                          : 4
Format                      : AAC
Format/Info                 : Advanced Audio Codec
Format profile              : LC
Codec ID                    : A_AAC
Duration                    : 22mn 52s
Channel(s)                  : 2 channels
Channel positions           : Front: L R
Sampling rate               : 48.0 KHz
Compression mode            : Lossy
Language                    : English
Default                     : No
Forced                      : No
Вне форума [Профиль] [ЛС]
Показать сообщения:    
Ответить на тему

Текущее время: Сегодня 01:06

Часовой пояс: GMT + 3



Вы не можете начинать темы
Вы не можете отвечать на сообщения
Вы не можете редактировать свои сообщения
Вы не можете удалять свои сообщения
Вы не можете голосовать в опросах
Вы не можете прикреплять файлы к сообщениям
Вы не можете скачивать файлы