Сегодня идет свободное скачивание без начисления Download

Убийство первой степени / Murder in the First / Сезон: 3 / Серии: 1 из 12 (Джесси Бокко, Эллисон Андерс) [2016, Драма, детектив, триллер, HDTVRip] MVO (OMSKBIRD records) + Original

Ответить на тему
 
Автор
Сообщение

Omen ®

Стаж: 5 лет 11 месяцев

Сообщений: 184329

Торрент-статистика

Пост 29-Июн-2016 12:03

[Цитировать]

--Убийство первой степени / Murder in the First-- Год выпуска: 2016
Страна: США
Жанр: Драма, детектив, триллер
Продолжительность: ~00:42:00-Перевод: Профессиональный (многоголосый закадровый) OMSKBIRD records-Режиссёр: Джесси Бокко / Jesse Bochco
В ролях: Йен Энтони Дэйл, Тэй Диггз, Кэтлин Робертсон, Карри Грэм, Мими Кирклэнд, Ричард Шифф, Рафаэль Сбардж, Ломбардо Бойяр, Том Фелтон, Стивен Уэбер ...-Описание: В центре сюжета сериала, действие которого разворачивается в Сан-Франциско, находятся детективы Терри Сигрейв и Хилди Маллиган, которые расследуют обычное убийство наркомана, однако в ходе развития дела выходят на генерального директора компании по разработке передовых технологий Эрика Бланта.-Доп. информация:
Релиз-группа:
Релиз подготовил:Grandfather61
Роли озвучивали: Павел Ярощик, Ольга Федорова, Владислав Данилов
Перевод: Екатерина Кузнецова
Звукорежиссер: Павел Квентов
Постер: Ксения Просветова
Работа со звуком: Grandfather61
- -Качество: HDTVRip
Контейнер: AVI
Видео: 720x400 (1.80:1), 23.976 fps, XviD build 73 ~2012 kbps avg, 0.29 bit/pixel
Аудио rus: AC-3, 48 KHz, 6 ch, 384 kbps | OMSKBIRD records
Аудио eng: AC-3, 48 KHz, 6 ch, 384 kbps | original
Субтитры: Отсутствуют

Список серий

01. Normandy Bitch

MediaInfo

General
Complete name : G:\Films\Murder.in.the.First.S03E.400p.OmskBird\Murder.in.the.First.S03E01.400p.HDTVRip.OmskBird.avi
Format : AVI
Format/Info : Audio Video Interleave
File size : 846 MiB
Duration : 42mn 18s
Overall bit rate : 2 795 Kbps
Writing application : VirtualDubMod 1.5.10.3 (build 2550/release)
Writing library : VirtualDubMod build 2550/release
Video
ID : 0
Format : MPEG-4 Visual
Format profile : Advanced Simple@L5
Format settings, BVOP : 1
Format settings, QPel : No
Format settings, GMC : No warppoints
Format settings, Matrix : Default (MPEG)
Codec ID : XVID
Codec ID/Hint : XviD
Duration : 42mn 18s
Bit rate : 2 013 Kbps
Width : 720 pixels
Height : 400 pixels
Display aspect ratio : 16:9
Frame rate : 23.976 (23976/1000) fps
Color space : YUV
Chroma subsampling : 4:2:0
Bit depth : 8 bits
Scan type : Progressive
Compression mode : Lossy
Bits/(Pixel*Frame) : 0.292
Stream size : 609 MiB (72%)
Writing library : XviD 73
Audio #1
ID : 1
Format : AC-3
Format/Info : Audio Coding 3
Mode extension : CM (complete main)
Format settings, Endianness : Big
Codec ID : 2000
Duration : 42mn 18s
Bit rate mode : Constant
Bit rate : 384 Kbps
Channel(s) : 6 channels
Channel positions : Front: L C R, Side: L R, LFE
Sampling rate : 48.0 KHz
Frame rate : 31.250 fps (1536 spf)
Compression mode : Lossy
Stream size : 116 MiB (14%)
Alignment : Split accross interleaves
Interleave, duration : 42 ms (1.00 video frame)
Interleave, preload duratio : 500 ms
Audio #2
ID : 2
Format : AC-3
Format/Info : Audio Coding 3
Mode extension : CM (complete main)
Format settings, Endianness : Big
Codec ID : 2000
Duration : 42mn 18s
Bit rate mode : Constant
Bit rate : 384 Kbps
Channel(s) : 6 channels
Channel positions : Front: L C R, Side: L R, LFE
Sampling rate : 48.0 KHz
Frame rate : 31.250 fps (1536 spf)
Compression mode : Lossy
Stream size : 116 MiB (14%)
Alignment : Split accross interleaves
Interleave, duration : 42 ms (1.00 video frame)
Interleave, preload duratio : 500 ms

Скриншоты

Вне форума [Профиль] [ЛС]
Похожие темы
Форум Тема Автор Торрент Отв. Посл. сообщение
./templates/default/images/folder_dl.gif Новинки (HD|DVD|BD|WEB|TV|SAT|PDTV|-Rip) Убийство в Восточном экспрессе / Murder on the Orient Express (Кеннет Брана) [2017 г., драма, криминал, детектив, BDRip-AVC] DUB | iTunes Theseus
1 | 0

0 | 949

11

2018-02-23 18:48
Theseus Последнее
Показать сообщения:    
Ответить на тему

Текущее время: Сегодня 07:54

Часовой пояс: GMT + 3



Вы не можете начинать темы
Вы не можете отвечать на сообщения
Вы не можете редактировать свои сообщения
Вы не можете удалять свои сообщения
Вы не можете голосовать в опросах
Вы не можете прикреплять файлы к сообщениям
Вы не можете скачивать файлы