Сегодня идет свободное скачивание без начисления Download

Не при делах / Мастер не на все руки / Master of None / Сезон: 1 / Серии: 1-10 из 10 (Азиз Ансари и Алан Йанг) [2015, комедия, WEBRip-AVC] DVO (Ozz) + Original + Rus Subs

Ответить на тему
 
Автор
Сообщение

Omen ®

Стаж: 5 лет 10 месяцев

Сообщений: 184329

Торрент-статистика

Пост 28-Июн-2016 18:00

[Цитировать]

Не при делах - Первый сезонMaster of None - First Season- Год выпуска: 2015
Страна: США
Жанр: комедия-Продолжительность: 00:30:00
Перевод: Профессиональный (двухголосый закадровый) Ozz
Авторы идеи: Азиз Ансари и Алан Йанг
В ролях: Азиз Ансари, Эрик Уэрхайм, Ноэль Уэллс, Лина Уэйт, Лайла Грейс, Харрисон Райт, Мария Дицциа, Дэвид Чарльз Эберт, Дэвид Крамхольц, Алексия Расмуссен и др.-Описание: Дев — начинающий Нью-Йоркский актёр, который ищет работу и пытается устроить личную жизнь.- -Sample-
Роли озвучивают: Алексей Серёгин и Елена Каламурза
Перевод: Trotteville
Подготовлено: Ozz-Качество: WEBRip
Формат: MKV
Видео: x264, 1024x428 (2.40:1), 23.976 fps, ~2000 kbps
Аудио #1: Russian 48.0 KHz, AС3, 6 channels, 384 Kbps |Ozz|
Аудио #2: English 48.0 KHz, AС3, 6 channels, 384 Kbps |Original|
Субтитры: русские (Trotteville)-

MediaInfo

General
Unique ID : 171723596856969426285152292805464063538 (0x8130C30107C525E2AFA75C2EE51C7E32)
Complete name : G:\Master of None Season 1 Ozz\Master.of.None.S01E01.UHDRip.Ozz.mkv
Format : Matroska
Format version : Version 4 / Version 2
File size : 572 MiB
Duration : 28mn 53s
Overall bit rate : 2 770 Kbps
Movie name : Не при делах | Master of None (S01E01) - Release by Ozz
Encoded date : UTC 2016-06-26 09:24:41
Writing application : mkvmerge v6.1.0 ('Old Devil') built on Mar 4 2013 09:10:42
Writing library : libebml v1.3.0 + libmatroska v1.4.0
Video
ID : 1
Format : AVC
Format/Info : Advanced Video Codec
Format profile : High@L4.1
Format settings, CABAC : Yes
Format settings, ReFrames : 14 frames
Codec ID : V_MPEG4/ISO/AVC
Duration : 28mn 53s
Bit rate : 2 000 Kbps
Width : 1 024 pixels
Height : 428 pixels
Display aspect ratio : 2.40:1
Frame rate mode : Constant
Frame rate : 23.976 fps
Color space : YUV
Chroma subsampling : 4:2:0
Bit depth : 8 bits
Scan type : Progressive
Bits/(Pixel*Frame) : 0.190
Stream size : 402 MiB (70%)
Writing library : x264 core 142 r2431 ac76440
Encoding settings : cabac=1 / ref=14 / deblock=1:-2:-2 / analyse=0x3:0x113 / me=umh / subme=11 / psy=1 / psy_rd=1.00:0.08 / mixed_ref=1 / me_range=48 / chroma_me=1 / trellis=2 / 8x8dct=1 / cqm=0 / deadzone=21,11 / fast_pskip=1 / chroma_qp_offset=-6 / threads=12 / lookahead_threads=3 / sliced_threads=0 / nr=0 / decimate=1 / interlaced=0 / bluray_compat=0 / constrained_intra=0 / bframes=13 / b_pyramid=2 / b_adapt=2 / b_bias=0 / direct=2 / weightb=1 / open_gop=0 / weightp=2 / keyint=240 / keyint_min=22 / scenecut=40 / intra_refresh=0 / rc_lookahead=60 / rc=2pass / mbtree=1 / bitrate=2000 / ratetol=1.0 / qcomp=0.72 / qpmin=0 / qpmax=69 / qpstep=4 / cplxblur=20.0 / qblur=0.5 / vbv_maxrate=62500 / vbv_bufsize=50000 / nal_hrd=none / filler=0 / ip_ratio=1.35 / aq=1:0.80
Language : English
Default : Yes
Forced : No
Color range : Limited
Color primaries : BT.709
Transfer characteristics : BT.709
Matrix coefficients : BT.709
Audio #1
ID : 2
Format : AC-3
Format/Info : Audio Coding 3
Mode extension : CM (complete main)
Format settings, Endianness : Big
Codec ID : A_AC3
Duration : 28mn 53s
Bit rate mode : Constant
Bit rate : 384 Kbps
Channel(s) : 6 channels
Channel positions : Front: L C R, Side: L R, LFE
Sampling rate : 48.0 KHz
Compression mode : Lossy
Stream size : 79.3 MiB (14%)
Title : DVO (Ozz)
Language : Russian
Default : Yes
Forced : No
Audio #2
ID : 3
Format : AC-3
Format/Info : Audio Coding 3
Mode extension : CM (complete main)
Format settings, Endianness : Big
Codec ID : A_AC3
Duration : 28mn 53s
Bit rate mode : Constant
Bit rate : 384 Kbps
Channel(s) : 6 channels
Channel positions : Front: L C R, Side: L R, LFE
Sampling rate : 48.0 KHz
Compression mode : Lossy
Stream size : 79.3 MiB (14%)
Language : English
Default : No
Forced : No
Text
ID : 4
Format : UTF-8
Codec ID : S_TEXT/UTF8
Codec ID/Info : UTF-8 Plain Text
Title : Trotteville
Language : Russian
Default : No
Forced : No

Скриншоты

Внимание! Раздача ведётся путём добавления новых серий

Внимание! Раздача ведётся путём добавления новых серий; при каждом добавлении создаётся новый торрент. Чтобы начать докачку новой серии, пользователям необходимо сделать следующее:
(1) остановить скачивание,
(2) удалить старый торрент у себя из клиента (старые серии удалять не надо),
(3) скачать новый торрент и запустить его у себя в клиенте вместо старого, при этом указать клиенту путь в старую папку куда и должно происходить скачивание новых серий.
Ваш клиент при этом должен произвести хеширование (проверку) старой папки (если не производит сам - помогите ему сделать это), и будет докачивать только те серии которых у вас ещё нет. Старые серии при этом не удаляются, а продолжают раздаваться!
Eсли вы уже удалили старые серии, то предотвратить повторную закачку старых серий можно, отжав галочку в соответствующих местах при запуске нового торрента. По возможности, желательно не удалять старые серии как можно дольше чтобы релизёр не столько продолжал раздавать старые серии, а смог сконцентрироваться на новых.
-
Вне форума [Профиль] [ЛС]
Показать сообщения:    
Ответить на тему

Текущее время: Сегодня 05:15

Часовой пояс: GMT + 3



Вы не можете начинать темы
Вы не можете отвечать на сообщения
Вы не можете редактировать свои сообщения
Вы не можете удалять свои сообщения
Вы не можете голосовать в опросах
Вы не можете прикреплять файлы к сообщениям
Вы не можете скачивать файлы