Сегодня идет свободное скачивание без начисления Download

Клевермэн / Умный человек / Cleverman / Сезон: 1 / Серии: 1-4 из 6 (Уэйн Блэр, Леа Пурселл) [2016, фантастика, драма, WEB-DL 720p] MVO (NewStudio) + Original

Ответить на тему
 
Автор
Сообщение

Omen ®

Стаж: 5 лет 6 месяцев

Сообщений: 186946

Торрент-статистика

Пост 27-Июн-2016 21:33

[Цитировать]

-Клевермэн / Умный человек / Cleverman-- Сезон: 1 / Серии: 1-4 (10)
Страна: США | USA
Жанр: фантастика, драма
Год выпуска: 2016
Продолжительность: ~00:50:00
Перевод: Профессиональный (многоголосый закадровый)
Cубтитры: нет-Режиссер: Уэйн Блэр, Леа Пурселл-В ролях:Хантер Пейдж-Лошар, Дебора Мэйлман, Тасма Уолтон, Джада Альбертс, Фрэнсис О’Коннор, Мансур Нур, Линетт Каррен, Маркус Грэхэми др.-Описание:Действие сериала разворачивается в недалеком будущем. Существа из австралийских мифов и легенд проникли в нашу реальность и захватили мир людей, и теперь человечество вынуждено ютиться в небольшой общине, опасаясь за свою жизнь. В центре событий — история двух братьев, которые, несмотря на давнюю вражду, объединяют усилия в борьбе за выживание. | | | -РАЗДАЧА ОТ: NewStudio-Качество видео: WEB-DL 720p
Формат: MKV
Видео кодек: H.264
Аудио кодек: AC3
Видео: 1280x718 at 23.976 fps, MPEG-4 AVC, ~4000 kbps avg, ~0.190 bit/pixel
Аудио Rus: 48 kHz, AC3, 3/2 (L,C,R,l,r) + LFE ch, ~384.00 kbps avg / NewStudio /
Аудио Eng: 48 kHz, AC3, 3/2 (L,C,R,l,r) + LFE ch, ~384.00 kbps avg / Оригинал /
«Семпл»

Список серий

01. 2016 Первый контакт / First Contact
02. 2016 Карантин / Containment
03. 2016 Свободный рейнджер / A Free Ranger
04. 2016 Солнце и луна / Sun and Moon

MediaInfo

Код:
Format                      : Matroska
Format version              : Version 4 / Version 2
File size                   : 1.70 GiB
Duration                    : 50mn 31s
Overall bit rate            : 4 822 Kbps
Encoded date                : UTC 2016-06-09 17:17:22
Writing application         : mkvmerge v8.2.0 ('World of Adventure') 32bit
Writing library             : libebml v1.3.1 + libmatroska v1.4.2
DURATION                    : 00:50:31.872000000
NUMBER_OF_FRAMES            : 94746
NUMBER_OF_BYTES             : 145529856
_STATISTICS_WRITING_APP     : mkvmerge v8.2.0 ('World of Adventure') 32bit
_STATISTICS_WRITING_DATE_UT : 2016-06-09 17:17:22
_STATISTICS_TAGS            : BPS DURATION NUMBER_OF_FRAMES NUMBER_OF_BYTES
Video
ID                          : 1
Format                      : AVC
Format/Info                 : Advanced Video Codec
Format profile              : High@L3.1
Format settings, CABAC      : No
Format settings, ReFrames   : 2 frames
Codec ID                    : V_MPEG4/ISO/AVC
Duration                    : 50mn 31s
Bit rate                    : 3 958 Kbps
Width                       : 1 280 pixels
Height                      : 718 pixels
Display aspect ratio        : 16:9
Frame rate mode             : Constant
Frame rate                  : 23.976 fps
Color space                 : YUV
Chroma subsampling          : 4:2:0
Bit depth                   : 8 bits
Scan type                   : Progressive
Bits/(Pixel*Frame)          : 0.180
Stream size                 : 1.40 GiB (82%)
Language                    : English
Default                     : Yes
Forced                      : No
Color primaries             : BT.709
Transfer characteristics    : BT.709
Matrix coefficients         : BT.709
Color range                 : Limited
Audio #1
ID                          : 2
Format                      : AC-3
Format/Info                 : Audio Coding 3
Mode extension              : CM (complete main)
Format settings, Endianness : Big
Codec ID                    : A_AC3
Duration                    : 50mn 31s
Bit rate mode               : Constant
Bit rate                    : 384 Kbps
Channel(s)                  : 6 channels
Channel positions           : Front: L C R, Side: L R, LFE
Sampling rate               : 48.0 KHz
Bit depth                   : 16 bits
Compression mode            : Lossy
Stream size                 : 139 MiB (8%)
Title                       : NewStudio.TV
Language                    : Russian
Default                     : Yes
Forced                      : No
Audio #2
ID                          : 3
Format                      : AC-3
Format/Info                 : Audio Coding 3
Mode extension              : CM (complete main)
Format settings, Endianness : Big
Codec ID                    : A_AC3
Duration                    : 50mn 31s
Bit rate mode               : Constant
Bit rate                    : 384 Kbps
Channel(s)                  : 6 channels
Channel positions           : Front: L C R, Side: L R, LFE
Sampling rate               : 48.0 KHz
Bit depth                   : 16 bits
Compression mode            : Lossy
Stream size                 : 139 MiB (8%)
Language                    : English
Default                     : No
Forced                      : No
[/spoiler]

Скриншоты



--Внимание!--

Раздача ведётся путём добавления новых серий

Внимание! Раздача ведётся путём добавления новых серий; при каждом добавлении создётся новый торрент. Чтобы начать докачку новой серии, пользователям необходимо сделать следующее:
(1) остановить скачивание,
(2) удалить старый торрент у себя из клиента (старые серии удалять не надо),
(3) скачать новый торрент и запустить его у себя в клиенте вместо старого, при этом указать клиенту путь в старую папку куда и должно происходить скачивание новых серий.-Ваш клиент при этом должен произвести хеширование (проверку) старой папки (если не производит сам - помогите ему сделать это), и будет докачивать только те серии которых у вас ещё нет. Старые серии при этом не удаляются, а продолжают раздаваться!-Eсли вы уже удалили старые серии, то предотвратить повторную закачку старых серий можно, отжав галочку в соответсвующих местах при запуске нового торрента.
ДОБАВЛЕНА * СЕРИЯ!
Вне форума [Профиль] [ЛС]
Показать сообщения:    
Ответить на тему

Текущее время: Сегодня 14:35

Часовой пояс: GMT + 3



Вы не можете начинать темы
Вы не можете отвечать на сообщения
Вы не можете редактировать свои сообщения
Вы не можете удалять свои сообщения
Вы не можете голосовать в опросах
Вы не можете прикреплять файлы к сообщениям
Вы не можете скачивать файлы