Сегодня идет свободное скачивание без начисления Download

Комиссар Бэк / Комиссар полиции Мартин Бек / Beck / Сезон: 6 / Серии: 1 из 4 (Мортен Клингберг / Mårten Klingberg) [2016, детектив, триллер, HDTVRip] Original + Rus Subs (Ali+sher)

Ответить на тему
 
Автор
Сообщение

Omen ®

Стаж: 5 лет 11 месяцев

Сообщений: 184329

Торрент-статистика

Пост 27-Июн-2016 18:00

[Цитировать]

Комиссар Бэк / Комиссар полиции Мартин Бек / Beck
Год выпуска: 2016
Страна: Швеция
Жанр: детектив, триллер
Продолжительность: 01:30:26
Перевод: Субтитры
Режиссёр: Мортен Клингберг / Mårten Klingberg
В ролях: Петер Хабер, Микаэль Персбрандтб, Монс Натанаельсон, Анна Асп.
Описание: Комиссар Мартин Бэк (Петер Хабер) – первоклассный полицейский и блестящий следователь. Истории о нем стали бестселлерами в Швеции. Сериал о Мартине Бэке – это мастерски закрученные детективы, персонажами которых стали герои книг Пера Валё и Май Шёваль, но действие было перенесено в наши дни.
Ссылка на предыдущие и альтернативные раздачи: [url=tracker.php?f=189,2366&nm=beck]http:///*spam*//forum/tracker.php?f=189,2366&nm=beck[/url]
Сэмпл: http://sendfile.su/1245844
Качество: HDTVRip
Формат: MKV
Видео: AVC at 2602 Кбит/сек 1280 x 720 (1.778) at 25.000 fp
Аудио: AC-3 at 384 Кбит/сек 6 каналов, 48,0 КГц
Субтитры: Русские (Ali+sher)

Список серий

1. Гунвальд /Gunvald

MediaInfo

Общее
Полное имя : C:\Beck.Gunvald.2015.SWEDiSH.720p.HDTV.x264-xD2V\Beck.Gunvald.2015.SWEDiSH.720p.HDTV.x264-xD2V.mkv
Формат : Matroska
Версия формата : Version 2
Размер файла : 1,92 Гбайт
Продолжительность : 1 ч. 30 м.
Общий поток : 3046 Кбит/сек
Программа кодирования : libebml v1.3.0 + libmatroska v1.4.0
Библиотека кодирования : mkvmerge v6.1.0 ('Old Devil') built on Mar 2 2013 14:32:37
Видео
Идентификатор : 1
Формат : AVC
Формат/Информация : Advanced Video Codec
Профиль формата : High@L4.1
Параметр CABAC формата : Да
Параметр ReFrames формата : 5 кадров
Идентификатор кодека : V_MPEG4/ISO/AVC
Продолжительность : 1 ч. 30 м.
Битрейт : 2602 Кбит/сек
Ширина : 1280 пикселей
Высота : 720 пикселей
Соотношение сторон : 16:9
Режим частоты кадров : Постоянный
Частота кадров : 25,000 кадров/сек
Цветовое пространство : YUV
Субдискретизация насыщенности : 4:2:0
Битовая глубина : 8 бит
Тип развёртки : Прогрессивная
Бит/(Пиксели*Кадры) : 0.113
Размер потока : 1,64 Гбайт (85%)
Библиотека кодирования : x264 core 148 r2638 7599210
Настройки программы : cabac=1 / ref=5 / deblock=1:-2:-2 / analyse=0x3:0x113 / me=umh / subme=8 / psy=1 / psy_rd=1.05:0.00 / mixed_ref=1 / me_range=16 / chroma_me=1 / trellis=1 / 8x8dct=1 / cqm=0 / deadzone=21,11 / fast_pskip=1 / chroma_qp_offset=-2 / threads=22 / lookahead_threads=3 / sliced_threads=0 / nr=0 / decimate=1 / interlaced=0 / bluray_compat=0 / constrained_intra=0 / bframes=3 / b_pyramid=2 / b_adapt=2 / b_bias=0 / direct=3 / weightb=1 / open_gop=0 / weightp=2 / keyint=250 / keyint_min=25 / scenecut=40 / intra_refresh=0 / rc_lookahead=50 / rc=crf / mbtree=1 / crf=17.0 / qcomp=0.60 / qpmin=0 / qpmax=69 / qpstep=4 / ip_ratio=1.40 / aq=1:0.70
Язык : English
Default : Да
Forced : Нет
Аудио
Идентификатор : 2
Формат : AC-3
Формат/Информация : Audio Coding 3
Расширение режима : CM (complete main)
Параметр Endianness формата : Big
Идентификатор кодека : A_AC3
Продолжительность : 1 ч. 30 м.
Вид битрейта : Постоянный
Битрейт : 384 Кбит/сек
Каналы : 6 каналов
Original Channel count : 2 канала
Расположение каналов : Front: L R
Частота : 48,0 КГц
Битовая глубина : 16 бит
Метод сжатия : С потерями
Размер потока : 248 Мбайт (13%)
Язык : English
Default : Да
Forced : Нет

Скриншоты







Вне форума [Профиль] [ЛС]
Показать сообщения:    
Ответить на тему

Текущее время: Сегодня 07:12

Часовой пояс: GMT + 3



Вы не можете начинать темы
Вы не можете отвечать на сообщения
Вы не можете редактировать свои сообщения
Вы не можете удалять свои сообщения
Вы не можете голосовать в опросах
Вы не можете прикреплять файлы к сообщениям
Вы не можете скачивать файлы