Сегодня идет свободное скачивание без начисления Download

Я - Алан Партридж / I\'m Alan Partridge / Сезон: 1 / Серии: 1 из 6 (Доминик Бригсток, Армандо Ианнуччи) [1997, комедия, DVDRip] VO (Oneinchnales) + Original

Ответить на тему
 
Автор
Сообщение

Omen ®

Стаж: 5 лет 6 месяцев

Сообщений: 186946

Торрент-статистика

Пост 26-Июн-2016 18:33

[Цитировать]

Я - Алан Партридж / I'm Alan Partridge
Год выпуска: 1997
Страна: Великобритания
Жанр: комедия
Продолжительность: 29
Перевод: Любительский (одноголосый закадровый) Oneinchnales
Режиссёр: Доминик Бригсток, Армандо Ианнуччи
В ролях: Стив Куган, Фил Корнуэлл, Саймон Гринхолл, Фелисити Монтегю, Эндрю Берт, Барбара Даркин, Сэлли Филлипс, Амелия Баллмор, Джеймс Лэнс, Дэвид Шнайдер
Описание: Завалив карьеру ведущего телешоу, неудачник Алан Партридж вынужден вести ночной радиоэфир на провинциальной радиостанции, но не теряет надежды вернуться на телевидение (© Oneinchnales)
Доп. информация: Низкий поклон открывателю этого сериала на трекере JinSem. Здесь мой собственный перевод и озвучание.
Ссылка на предыдущие и альтернативные раздачи: [url=tracker.php?nm=I%27m%20Alan%20Partridge]http:///*spam*//forum/tracker.php?nm=I%27m%20A...0Partridge[/url]
Сэмпл: https://yadi.sk/i/wr5kcxSLsoJhh
Качество: DVDRip
Формат: AVI
Видео: XviD, 640x480, 4:3, 25.000 fps, 1083 Kbps, 0.141 bit/pixel
Аудио: 48 kHz, AC-3, 2 ch, CBR 192.00 kbps (русский #Oneinchnales)
Аудио 2: 48 kHz, AC-3, 2 ch, CBR 192.00 kbps (оригинальная английская дорожка)
Субтитры: английские

Список серий

Сезон 1:
(названия серий пародируют названия известных кинохитов)
1. Комната с Аланом (A Room with an Alan)
2. Влечение Алана (Alan Attraction)
3. Уплывший Алан (Watership Alan)
4. Основной Алан (Basic Alan)
5. Убить пересмешника Алана (To Kill a Mocking Alan)
6. Вздымающийся Алан (Towering Alan)

Внимание! Раздача ведётся путём добавления новых серий!

Внимание! Раздача ведётся путём добавления новых серий; при каждом добавлении создаётся новый торрент. Чтобы начать докачку новой серии, пользователям необходимо сделать следующее:
(1) остановить скачивание,
(2) удалить старый торрент у себя из клиента (старые серии удалять не надо),
(3) скачать новый торрент и запустить его у себя в клиенте вместо старого, при этом указать клиенту путь в старую папку куда и должно происходить скачивание новых серий.
Ваш клиент при этом должен произвести хеширование (проверку) старой папки (если не производит сам - помогите ему сделать это), и будет докачивать только те серии которых у вас ещё нет. Старые серии при этом не удаляются, а продолжают раздаваться!
Если вы уже удалили старые серии, то предотвратить повторную закачку старых серий можно, отжав галочку в соответствующих местах при запуске нового торрента.

MediaInfo

Общее
Полное имя : Ya.Alan.Partridzh.(1997).XviD.AC3.Dual_Oneinchnales_S1E01.avi
Формат : AVI
Формат/Информация : Audio Video Interleave
Размер файла : 307 Мбайт
Продолжительность : 28 м.
Общий поток : 1481 Кбит/сек
Название фильма : Ya.Alan.Partridzh.(1997).XviD.AC3.Dual_Oneinchnales_S1E01
Программа кодирования : VirtualDubMod 1.5.10.2 (build 2540/release) VirtualDubMod build 2540/release
Авторское право : © Oneinchnales
Видео
Идентификатор : 0
Формат : MPEG-4 Visual
Профиль формата : Advanced Simple@L5
Параметр BVOP формата : 1
Параметр QPel формата : Нет
Параметр GMC формата : Без точки перехода
Параметр матрицы формата : Выборочная
Идентификатор кодека : XVID
Идентификатор кодека/Подсказка : XviD
Продолжительность : 28 м.
Битрейт : 1083 Кбит/сек
Ширина : 640 пикселей
Высота : 480 пикселей
Соотношение сторон : 4:3
Частота кадров : 25,000 кадров/сек
Цветовое пространство : YUV
Субдискретизация насыщенности : 4:2:0
Битовая глубина : 8 бит
Тип развёртки : Прогрессивная
Метод сжатия : С потерями
Бит/(Пиксели*Кадры) : 0.141
Размер потока : 224 Мбайт (73%)
Библиотека кодирования : XviD 1.2.0.dev47 (UTC 2006-11-01)
Аудио #1
Идентификатор : 1
Формат : AC-3
Формат/Информация : Audio Coding 3
Расширение режима : CM (complete main)
Параметр Endianness формата : Big
Идентификатор кодека : 2000
Продолжительность : 28 м.
Вид битрейта : Постоянный
Битрейт : 192 Кбит/сек
Каналы : 2 канала
Расположение каналов : Front: L R
Частота : 48,0 КГц
Метод сжатия : С потерями
Размер потока : 39,8 Мбайт (13%)
Выравнивание : Разделение по промежуткам
Продолжительность промежутка : 40 мс. (1,00 видеокадр)
Время предзагрузки промежутка : 500 мс.
Язык : Undefined / English
Аудио #2
Идентификатор : 2
Формат : AC-3
Формат/Информация : Audio Coding 3
Расширение режима : CM (complete main)
Параметр Endianness формата : Big
Идентификатор кодека : 2000
Продолжительность : 28 м.
Вне форума [Профиль] [ЛС]
Показать сообщения:    
Ответить на тему

Текущее время: Сегодня 18:30

Часовой пояс: GMT + 3



Вы не можете начинать темы
Вы не можете отвечать на сообщения
Вы не можете редактировать свои сообщения
Вы не можете удалять свои сообщения
Вы не можете голосовать в опросах
Вы не можете прикреплять файлы к сообщениям
Вы не можете скачивать файлы