Сегодня идет свободное скачивание без начисления Download

Заточенные кепки / Острые козырьки / Peaky Blinders / Сезоны: 1-3 / Серии: 1-18 из 18 (Отто Баферст, Том Харпер) [2013-2016, драма, криминал, HDRip] MVO (LostFilm) + Original + Subs (Rus, Eng)

Ответить на тему
 
Автор
Сообщение

Omen ®

Стаж: 5 лет 11 месяцев

Сообщений: 184329

Торрент-статистика

Пост 25-Июн-2016 18:00

[Цитировать]

-Заточенные кепки | Острые козырьки | Peaky Blinders-- • Год выпуска: 2013-2016
• Страна: Великобритания
• Жанр: драма, криминал
• Продолжительность: ~ 00:55:00-• Перевод: Профессиональный (многоголосый закадровый) | LostFilm-• Режиссёр: Отто Баферст, Том Харпер-• В ролях: Киллиан Мёрфи, Пол Андерсон, Иддо Голдберг, Хелен МакКрори, Сэм Нил, Аннабелль Уоллис, Джо Коул, Элфи Эванс-Мис, Джек Хартли, Кевин Меткалф-• Описание: Британский сериал о криминальном мире Бирмингема 20-х годов прошлого века, в котором многолюдная семья Шелби стала одной из самых жестоких и влиятельных гангстерских банд послевоенного времени. Фирменным знаком группировки, промышлявшей грабежами и азартными играми, стали зашитые в козырьки лезвия.- --• Качество: WEB-DLRip
• Формат: AVI
• Видео: XviD, 704x384, 25 fps, ~1500 kbps
• Аудио #1: MP3, 48 kHz, 2 ch, 128 kbps, CBR - Rus
• Аудио #2: MP3, 48 kHz, 2 ch, 128 kbps, CBR - Eng
• Субтитры: русские (нотабеноид), английские-

✘ MediaInfo ✘

Код:
Общее
Полное имя                               : X:\ATorrent\Peaky Blinders\Season 01\Peaky.Blinders.[S01E01].XviD.LostFilm.[qqss44].avi
Формат                                   : AVI
Формат/Информация                        : Audio Video Interleave
Размер файла                             : 722 Мбайт
Продолжительность                        : 56 м.
Общий поток                              : 1770 Кбит/сек
Программа кодирования                    : VirtualDubMod 1.5.10.3 | www.virtualdub-fr.org || (build 2550/release)
Библиотека кодирования                   : VirtualDubMod build 2550/release
Видео
Идентификатор                            : 0
Формат                                   : MPEG-4 Visual
Профиль формата                          : Advanced Simple@L5
Параметр BVOP формата                    : 2
Параметр QPel формата                    : Нет
Параметр GMC формата                     : Без точки перехода
Параметр матрицы формата                 : Default (MPEG)
Идентификатор кодека                     : XVID
Идентификатор кодека/Подсказка           : XviD
Продолжительность                        : 56 м.
Битрейт                                  : 1500 Кбит/сек
Ширина                                   : 704 пикселя
Высота                                   : 384 пикселя
Соотношение сторон                       : 1,85:1
Частота кадров                           : 25,000 кадров/сек
Цветовое пространство                    : YUV
Субдискретизация насыщенности            : 4:2:0
Битовая глубина                          : 8 бит
Тип развёртки                            : Прогрессивная
Метод сжатия                             : С потерями
Бит/(Пиксели*Кадры)                      : 0.222
Размер потока                            : 611 Мбайт (85%)
Библиотека кодирования                   : XviD 73
Аудио #1
Идентификатор                            : 1
Формат                                   : MPEG Audio
Версия формата                           : Version 1
Профиль формата                          : Layer 3
Режим                                    : Joint stereo
Расширение режима                        : MS Stereo
Идентификатор кодека                     : 55
Идентификатор кодека/Подсказка           : MP3
Продолжительность                        : 56 м.
Вид битрейта                             : Постоянный
Битрейт                                  : 128 Кбит/сек
Каналы                                   : 2 канала
Частота                                  : 48,0 КГц
Метод сжатия                             : С потерями
Размер потока                            : 52,2 Мбайт (7%)
Выравнивание                             : Соединение по промежуткам
Продолжительность промежутка             : 40  мс. (1,00 видеокадр)
Время предзагрузки промежутка            : 504  мс.
Аудио #2
Идентификатор                            : 2
Формат                                   : MPEG Audio
Версия формата                           : Version 1
Профиль формата                          : Layer 3
Режим                                    : Joint stereo
Расширение режима                        : MS Stereo
Идентификатор кодека                     : 55
Идентификатор кодека/Подсказка           : MP3
Продолжительность                        : 56 м.
Вид битрейта                             : Постоянный
Битрейт                                  : 128 Кбит/сек
Каналы                                   : 2 канала
Частота                                  : 48,0 КГц
Метод сжатия                             : С потерями
Размер потока                            : 52,2 Мбайт (7%)
Выравнивание                             : Соединение по промежуткам
Продолжительность промежутка             : 40  мс. (1,00 видеокадр)
Время предзагрузки промежутка            : 504  мс.

✘ Скриншоты ✘

-
Вне форума [Профиль] [ЛС]
Показать сообщения:    
Ответить на тему

Текущее время: Сегодня 20:56

Часовой пояс: GMT + 3



Вы не можете начинать темы
Вы не можете отвечать на сообщения
Вы не можете редактировать свои сообщения
Вы не можете удалять свои сообщения
Вы не можете голосовать в опросах
Вы не можете прикреплять файлы к сообщениям
Вы не можете скачивать файлы