Сегодня идет свободное скачивание без начисления Download

Волчий зал / Wolf Hall / Сезон: 1 / Серии: 6 из 6 (Питер Козмински) [2015, Историческая драма, BDRip 1080p] MVO (SDI Media по заказу ТПО Red Media) + Original + Subs (Rus, Eng)

Ответить на тему
 
Автор
Сообщение

Omen ®

Стаж: 5 лет 6 месяцев

Сообщений: 186946

Торрент-статистика

Пост 25-Июн-2016 15:00

[Цитировать]

Волчий зал / Wolf Hall
Год выпуска: 2015
Страна: Великобритания
Жанр: Историческая драма
Продолжительность: 01:00:00
Перевод: Профессиональный (многоголосый закадровый) SDI Media по заказу ТПО Red Media
Режиссёр: Питер Козмински
В ролях: Марк Райленс, Дэмиан Льюис, Клэр Фой, Джонатан Прайс, Саскиа Ривз, Кейт Филипс, Бернард Хилл, Ричард Диллан, Гарри Ллойд, Дейвид Робб, Макрк Гатисс, Энтон Лессер, Черти Уэйкфилд
Описание: Англия в 1529 году на грани катастрофы. Если король умрет, не оставив наследника мужского пола, страна будет уничтожена Гражданской войной. Генрих VIII хочет аннулировать свой брак с Екатериной Арагонской, а папа и некоторые европейские монархи противостоят этому. Но в борьбу за своего короля и собственные амбиции вступает Томас Кромвель, необычный, харизматичный, амбициозный идеалист и нигилист.
Ссылка на предыдущие и альтернативные раздачи: [url=tracker.php?f=189,2366&nm=Wolf+hall]http:///*spam*//forum/tracker.php?f=189,2366&nm=Wolf+hall[/url]
Сэмпл: https://yadi.sk/i/YKuqCMhGsnH3C
Качество: BDRip 1080p
Контейнер: MKV
Видео: MPEG-4 AVC, 1920x1080 (16:9), 25.000 fps, ~ 9000 Кбит/с,
Аудио: АС3, 48.0 KHz, 2 ch, 192 Kbps, CBR - русский
Аудио 2: АС3, 48.0 KHz, 2 ch, 384 Kbps, CBR - английский
Субтитры: Русские, английские

Релиз

Khoren2013
Звук - miha2154
Русские субтитры - Milo_slava
Перевод: Профессиональный многоголосый закадровый - SDI Media по заказу ТПО Red Media

Список серий

01. Three Card Trick (Фокус с тремя картами)
02. Entirely Beloved (Всецело любимая)
03. Anna Regina (Королева Анна)
04. The Devil's Spit (Дьявольская коса)
05. Crows (Стервятники)
06. Master of Phantoms (Мастер фантомов)

MediaInfo

Video
ID : 1
Format : AVC
Format/Info : Advanced Video Codec
Format profile : High@L4.1
Format settings, CABAC : Yes
Format settings, ReFrames : 4 frames
Codec ID : V_MPEG4/ISO/AVC
Duration : 59mn 4s
Bit rate : 9 083 Kbps
Width : 1 920 pixels
Height : 1 080 pixels
Display aspect ratio : 16:9
Frame rate mode : Constant
Frame rate : 25.000 fps
Color space : YUV
Chroma subsampling : 4:2:0
Bit depth : 8 bits
Scan type : Progressive
Bits/(Pixel*Frame) : 0.175
Stream size : 3.75 GiB (94%)
Writing library : x264 core 144 r2525 40bb568
Encoding settings : cabac=1 / ref=4 / deblock=1:-2:-2 / analyse=0x3:0x113 / me=umh / subme=8 / psy=1 / psy_rd=1.00:0.00 / mixed_ref=1 / me_range=16 / chroma_me=1 / trellis=1 / 8x8dct=1 / cqm=0 / deadzone=21,11 / fast_pskip=1 / chroma_qp_offset=-2 / threads=6 / lookahead_threads=1 / sliced_threads=0 / nr=0 / decimate=1 / interlaced=0 / bluray_compat=0 / constrained_intra=0 / bframes=3 / b_pyramid=2 / b_adapt=2 / b_bias=0 / direct=3 / weightb=1 / open_gop=0 / weightp=2 / keyint=250 / keyint_min=25 / scenecut=40 / intra_refresh=0 / rc_lookahead=50 / rc=2pass / mbtree=1 / bitrate=9083 / ratetol=1.0 / qcomp=0.60 / qpmin=0 / qpmax=69 / qpstep=4 / cplxblur=20.0 / qblur=0.5 / ip_ratio=1.40 / aq=1:1.00
Language : English
Default : Yes
Forced : No
Audio #1
ID : 2
Format : AC-3
Format/Info : Audio Coding 3
Mode extension : CM (complete main)
Format settings, Endianness : Big
Codec ID : A_AC3
Duration : 59mn 3s
Bit rate mode : Constant
Bit rate : 192 Kbps
Channel(s) : 2 channels
Channel positions : Front: L R
Sampling rate : 48.0 KHz
Frame rate : 31.250 fps (1536 spf)
Compression mode : Lossy
Stream size : 81.1 MiB (2%)
Language : Russian
Default : Yes
Forced : No
Audio #2
ID : 3
Format : AC-3
Format/Info : Audio Coding 3
Mode extension : CM (complete main)
Format settings, Endianness : Big
Codec ID : A_AC3
Duration : 59mn 4s
Bit rate mode : Constant
Bit rate : 384 Kbps
Channel(s) : 2 channels
Channel positions : Front: L R
Sampling rate : 48.0 KHz
Frame rate : 31.250 fps (1536 spf)
Compression mode : Lossy
Stream size : 162 MiB (4%)
Language : English
Default : No
Forced : No
Text #1
ID : 4
Format : UTF-8
Codec ID : S_TEXT/UTF8
Codec ID/Info : UTF-8 Plain Text
Duration : 58mn 10s
Bit rate : 93 bps
Count of elements : 689
Stream size : 39.8 KiB (0%)
Language : Russian
Default : No
Forced : No
Text #2
ID : 5
Format : UTF-8
Codec ID : S_TEXT/UTF8
Codec ID/Info : UTF-8 Plain Text
Duration : 57mn 8s
Bit rate : 53 bps
Count of elements : 691
Stream size : 22.4 KiB (0%)
Language : English
Default : No
Forced : No

Скриншоты



Вне форума [Профиль] [ЛС]
Показать сообщения:    
Ответить на тему

Текущее время: Сегодня 18:54

Часовой пояс: GMT + 3



Вы не можете начинать темы
Вы не можете отвечать на сообщения
Вы не можете редактировать свои сообщения
Вы не можете удалять свои сообщения
Вы не можете голосовать в опросах
Вы не можете прикреплять файлы к сообщениям
Вы не можете скачивать файлы