Сегодня идет свободное скачивание без начисления Download

Милые обманщицы / Pretty Little Liars / Сезон: 7 / Серии: 1-20 из 20 (Рон Лагомарсино) [2016, Молодежная драма, триллер, WEB-DLRip] MVO (NewStudio)

Ответить на тему
 
Автор
Сообщение

Omen ®

Стаж: 5 лет 10 месяцев

Сообщений: 184329

Торрент-статистика

Пост 25-Июн-2016 09:03

[Цитировать]

Милые обманщицы / Pretty Little Liars
Год выпуска: 2016
Страна: США
Жанр: Молодежная драма, триллер
Продолжительность: ~ 42 мин.
Перевод: Профессиональный (многоголосый закадровый) {NewStudio}
Режиссёр: Рон Лагомарсино и др.
В ролях: Шэй Митчелл (Эмили), Тройэн Эвери Беллисарио (Спенсер), Эшли Бенсон (Ханна), Люси Хейл (Ария), Джанел Пэрриш (Мона), Таммин Сурсок (Дженна), Торри ДеВито (Мелисса), Саша Питерс (Элисон), Тайлер Блэкберн (Калеб), Кигэн Аллен (Тоби) и другие
Описание: В городке Роузвуд, штат Пенсильвания, на первый взгляд все чудесно. Аккуратно подстриженные живые изгороди, красивые современные особняки. Но стоит только присмотреться… У каждого тут есть своя не слишком красивая тайна, а сплетней здесь больше, чем "Мерседесов" на улицах. Четыре подруги - Спенсер, Ханна, Ария, и Эмили - возвращаются в городок, чтобы попытаться найти пятую подругу – Элисон, которая год назад таинственно исчезла. Но скоро им становится не до поисков лучшей подруги. Оказывается, есть человек, который все про них знает. Это – некий аноним, скрывающийся под псевдонимом «Э». Он шлет им письма, в которых…-Сэмпл-Качество: WEB-DLRip
Формат: AVI
Видео: XviD, 720x400 (16:9), 23.976 fps, ~1521 kbps, 0.220 bit/pixel
Аудио 1: RUS, MP3, 48.0 KHz, 2 channels, 128 Kbps
Аудио 2: ENG, MP3, 48.0 KHz, 2 channels, 128 Kbps
Субтитры: нет

MediaInfo

General
Complete name : F:\Video\new\Pretty.Little.Liars (S07) NewStudio\Pretty.Little.Liars.s07e01.WEBDLRip.NewStudio.TV.avi
Format : AVI
Format/Info : Audio Video Interleave
File size : 550 MiB
Duration : 42mn 56s
Overall bit rate : 1 791 Kbps
Writing application : VirtualDubMod 1.5.10.2 (build 2540/release)
Writing library : VirtualDubMod build 2540/release
Video
ID : 0
Format : MPEG-4 Visual
Format profile : Advanced Simple@L5
Format settings, BVOP : 2
Format settings, QPel : No
Format settings, GMC : No warppoints
Format settings, Matrix : Default (MPEG)
Codec ID : XVID
Codec ID/Hint : XviD
Duration : 42mn 56s
Bit rate : 1 521 Kbps
Width : 720 pixels
Height : 400 pixels
Display aspect ratio : 16:9
Frame rate : 23.976 (23976/1000) fps
Color space : YUV
Chroma subsampling : 4:2:0
Bit depth : 8 bits
Scan type : Progressive
Compression mode : Lossy
Bits/(Pixel*Frame) : 0.220
Stream size : 467 MiB (85%)
Writing library : XviD 73
Audio #1
ID : 1
Format : MPEG Audio
Format version : Version 1
Format profile : Layer 3
Mode : Joint stereo
Mode extension : MS Stereo
Codec ID : 55
Codec ID/Hint : MP3
Duration : 42mn 56s
Bit rate mode : Constant
Bit rate : 128 Kbps
Channel(s) : 2 channels
Sampling rate : 48.0 KHz
Compression mode : Lossy
Stream size : 39.3 MiB (7%)
Alignment : Aligned on interleaves
Interleave, duration : 42 ms (1.00 video frame)
Interleave, preload duration : 504 ms
Audio #2
ID : 2
Format : MPEG Audio
Format version : Version 1
Format profile : Layer 3
Mode : Joint stereo
Mode extension : MS Stereo
Codec ID : 55
Codec ID/Hint : MP3
Duration : 42mn 56s
Bit rate mode : Constant
Bit rate : 128 Kbps
Channel(s) : 2 channels
Sampling rate : 48.0 KHz
Compression mode : Lossy
Stream size : 39.3 MiB (7%)
Alignment : Aligned on interleaves
Interleave, duration : 42 ms (1.00 video frame)
Interleave, preload duration : 504 ms
Writing library : LAME3.99r
Encoding settings : -m j -V 4 -q 2 -lowpass 17 -b 128

Скриншоты

График выхода серий в США:

01 - 21/06/16 - "Tic-Tock, Bitches"
02 - 28/06/16 - "Bedlam"
03 - 05/07/16 -

Внимание! Раздача ведётся путём добавления новых серий

Внимание! Раздача ведётся путём добавления новых серий; при каждом добавлении создаётся новый торрент. Чтобы начать докачку новой серии, пользователям необходимо сделать следующее:
1) остановить скачивание,
2) удалить старый торрент у себя из клиента (старые серии удалять не надо),
3) скачать новый торрент и запустить его у себя в клиенте вместо старого, при этом указать клиенту путь в старую папку куда и должно происходить скачивание новых серий.
Ваш клиент при этом должен произвести хеширование (проверку) старой папки (если не производит сам - помогите ему сделать это), и будет докачивать только те серии которых у вас ещё нет. Старые серии при этом не удаляются, а продолжают раздаваться!
Eсли вы уже удалили старые серии, то предотвратить повторную закачку старых серий можно, отжав галочку в соответствующих местах при запуске нового торрента. По возможности, желательно не удалять старые серии как можно дольше чтобы релизёр не столько продолжал раздавать старые серии, а смог сконцентрироваться на новых.
[url=viewtopic.php?t=609808]http:///*spam*//forum/viewtopic.php?t=609808[/url]
Обновлено: 25.06.2016
Вне форума [Профиль] [ЛС]
Показать сообщения:    
Ответить на тему

Текущее время: Сегодня 23:25

Часовой пояс: GMT + 3



Вы не можете начинать темы
Вы не можете отвечать на сообщения
Вы не можете редактировать свои сообщения
Вы не можете удалять свои сообщения
Вы не можете голосовать в опросах
Вы не можете прикреплять файлы к сообщениям
Вы не можете скачивать файлы