Сегодня идет свободное скачивание без начисления Download

Лексс / Lexx / Сезон: 1-4 из 4 / Серии: 1-61 из 61 (Пол Донован / Paul Donovan) [1997-2001, фантастика, приключения, комедия, DVDRip] DVO (AXN Sci-fi)

Ответить на тему
 
Автор
Сообщение

Omen ®

Стаж: 5 лет 10 месяцев

Сообщений: 184329

Торрент-статистика

Пост 23-Июн-2016 21:00

[Цитировать]

---Лексс / Lexx--- Год выпуска: 1997-2001
Страна: Канада, Германия, Великобритания
Жанр: фантастика, приключения, комедия
Продолжительность: 4 x ~ 01:33:05 + 57 x ~ 00:47:51
Перевод: Профессиональный (двухголосый закадровый) - AXN Sci-fi

Режиссёр: Пол Донован / Paul Donovan
В ролях: Брайан Дауни, Майкл МакМанус, Ксения Зееберг, Ева Хаберманн, Джеффри Хиршфилд, Том Галлант, Найджел Беннетт, Патриция Зентилли, Лекс Гигерофф, Рольф Канис
Описание: Бесстрашный воин погибшей расы Бруннен-Джи, младший помощник вспомогательного заместителя курьера Стэнли Твидл, очаровательная раба любви Зэв с характером межзвездного ящера и романтическая голова-робот 790 захватывают огромный живой космический корабль «Лексc», самое мощное оружие разрушения в двух Вселенных.
Спасаясь от гнева Божественной Тени, безжалостного властителя Вселенной Света, они оказываются в неведомой Вселенной Тьмы, где каждый неосторожный шаг может стоить им жизни.
Приземляясь на загадочных планетах, где гостям не всегда бывают рады, ускользая от коварных ловушек и помогая всем, кто попал в беду, подчас находясь на волосок от гибели, отчаянные межгалактические странники переживут невероятные приключения объединенные одной общей целью — найти себе новый дом.
---
Качество: DVDRip
Формат: AVI
Видео: 640x480 (1.33:1), 23.976 fps, XviD build 73 ~1799 kbps avg, 0.24 bit/pixel
Аудио: 48 kHz, AC3 Dolby Digital, 2/0 (L,R) ch, ~192 kbps
Субтитры: отсутствуют
----

MediaInfo

Общее
Полное имя : H:\Lexx.1997-2001.dvdrip_[teko]\Season_01\s01e01_I.Worship.His.Shadow.avi
Формат : AVI
Формат/Информация : Audio Video Interleave
Размер файла : 1,30 Гбайт
Продолжительность : 1 ч. 33 м.
Общий поток : 2001 Кбит/сек
Программа кодирования : VirtualDubMod 1.5.10.3 | www.virtualdub-fr.org || (build 2550/release)
Библиотека кодирования : VirtualDubMod build 2550/release
Видео
Идентификатор : 0
Формат : MPEG-4 Visual
Профиль формата : Advanced Simple@L5
Параметр BVOP формата : 1
Параметр QPel формата : Нет
Параметр GMC формата : Без точки перехода
Параметр матрицы формата : Выборочная
Идентификатор кодека : XVID
Идентификатор кодека/Подсказка : XviD
Продолжительность : 1 ч. 33 м.
Битрейт : 1800 Кбит/сек
Ширина : 640 пикселей
Высота : 480 пикселей
Соотношение сторон : 4:3
Частота кадров : 23,976 кадра/сек
Цветовое пространство : YUV
Субдискретизация насыщенности : 4:2:0
Битовая глубина : 8 бит
Тип развёртки : Прогрессивная
Метод сжатия : С потерями
Бит/(Пиксели*Кадры) : 0.244
Размер потока : 1,17 Гбайт (90%)
Библиотека кодирования : XviD 73
Аудио
Идентификатор : 1
Формат : AC-3
Формат/Информация : Audio Coding 3
Расширение режима : CM (complete main)
Параметр Endianness формата : Big
Идентификатор кодека : 2000
Продолжительность : 1 ч. 33 м.
Вид битрейта : Постоянный
Битрейт : 192 Кбит/сек
Каналы : 2 канала
Расположение каналов : Front: L R
Частота : 48,0 КГц
Битовая глубина : 16 бит
Метод сжатия : С потерями
Размер потока : 128 Мбайт (10%)
Выравнивание : Разделение по промежуткам
Продолжительность промежутка : 42 мс. (1,00 видеокадр)
Время предзагрузки промежутка : 500 мс.
--
Вне форума [Профиль] [ЛС]
Показать сообщения:    
Ответить на тему

Текущее время: Сегодня 23:26

Часовой пояс: GMT + 3



Вы не можете начинать темы
Вы не можете отвечать на сообщения
Вы не можете редактировать свои сообщения
Вы не можете удалять свои сообщения
Вы не можете голосовать в опросах
Вы не можете прикреплять файлы к сообщениям
Вы не можете скачивать файлы