Сегодня идет свободное скачивание без начисления Download

В меньшинстве / Outnumbered / Сезон: 1 / Серии: 1-2 из 6 (Andy Hamilton, Guy Jenkin) [2007, комедия, DVDRip] Original + eng sub + rus sub (antoneus)

Ответить на тему
 
Автор
Сообщение

Omen ®

Стаж: 5 лет 9 месяцев

Сообщений: 184433

Торрент-статистика

Пост 23-Июн-2016 00:00

[Цитировать]

В меньшинстве / Outnumbered
Год выпуска: 2007
Страна: Великобритания
Жанр: комедия
Продолжительность: 29:00
Перевод: Субтитры antoneus
Режиссёр: Andy Hamilton, Guy Jenkin
В ролях: Claire Skinner, Hugh Dennis, Tyger Drew-Honey, Daniel Roche, Ramona Marquez
Описание: Добро пожаловать в семью Брокман - обычную британскую многодетную семью. Папа - учитель истории в средней школе, мама - подрабатывающая домохозяйка и трое очаровательных детей: старший - серьезный, ответственный и саркастичный Джейк, средний - постоянно врущий Бен и младшая - Карен, постоянно задающая окружающим совсем не детские вопросы. Добро пожаловать, если не боитесь погрузиться в хаос. Нет, нельзя сказать, что родители не справляются со своими обязанностями. Они просто в меньшинстве.
Доп. информация: Один из лучших британских семейных сериалов последних лет, тепло встреченный критиками и зрителями. Полуимпровизированная комедия, которая "переопределила" понятие семейного ситкома и получила несколько наград как "лучший ситком".
Сэмпл

Качество: DVDRip
Формат: AVI
Видео: H.264, 720x404, 16:9, 25 fps, 1491 kbps
Аудио: AC-3, 48 kHz, 2ch, 192 kbps
Субтитры: eng, rus

Список серий

01 - The School Run
02 - The Special Bowl

MediaInfo

General
Complete name : I:\Video\Outnumbered\Season 1\01 - The School Run.avi
Format : AVI
Format/Info : Audio Video Interleave
File size : 352 MiB
Duration : 29mn 4s
Overall bit rate : 1 694 Kbps
Movie name : OUTNUMBERED_S1
Writing application : Lavf56.36.100
Video
ID : 1
Format : AVC
Format/Info : Advanced Video Codec
Format profile : Main@L3
Format settings, CABAC : Yes
Format settings, ReFrames : 2 frames
Codec ID : H264
Duration : 29mn 4s
Bit rate : 1 491 Kbps
Width : 720 pixels
Height : 404 pixels
Display aspect ratio : 16:9
Frame rate mode : Variable
Frame rate : 25.000 fps
Color space : YUV
Chroma subsampling : 4:2:0
Bit depth : 8 bits
Scan type : Progressive
Bits/(Pixel*Frame) : 0.205
Stream size : 310 MiB (88%)
Audio
ID : 0
Format : AC-3
Format/Info : Audio Coding 3
Mode extension : CM (complete main)
Format settings, Endianness : Big
Codec ID : 2000
Duration : 29mn 3s
Bit rate mode : Constant
Bit rate : 192 Kbps
Channel(s) : 2 channels
Channel positions : Front: L R
Sampling rate : 48.0 KHz
Bit depth : 16 bits
Compression mode : Lossy
Stream size : 39.9 MiB (11%)
Alignment : Aligned on interleaves
Interleave, duration : 40 ms (1.00 video frame)

Скриншоты

Внимание! Раздача ведётся путём добавления новых серий!

Внимание! Раздача ведётся путём добавления новых серий; при каждом добавлении создаётся новый торрент. Чтобы начать докачку новой серии, пользователям необходимо сделать следующее:
(1) остановить скачивание,
(2) удалить старый торрент у себя из клиента (старые серии удалять не надо),
(3) скачать новый торрент и запустить его у себя в клиенте вместо старого, при этом указать клиенту путь в старую папку куда и должно происходить скачивание новых серий.
Ваш клиент при этом должен произвести хеширование (проверку) старой папки (если не производит сам - помогите ему сделать это), и будет докачивать только те серии которых у вас ещё нет. Старые серии при этом не удаляются, а продолжают раздаваться!
Eсли вы уже удалили старые серии, то предотвратить повторную закачку старых серий можно, отжав галочку в соответствующих местах при запуске нового торрента. По возможности, желательно не удалять старые серии как можно дольше чтобы релизёр не столько продолжал раздавать старые серии, а смог сконцентрироваться на новых.
Вне форума [Профиль] [ЛС]
Показать сообщения:    
Ответить на тему

Текущее время: Сегодня 16:41

Часовой пояс: GMT + 3



Вы не можете начинать темы
Вы не можете отвечать на сообщения
Вы не можете редактировать свои сообщения
Вы не можете удалять свои сообщения
Вы не можете голосовать в опросах
Вы не можете прикреплять файлы к сообщениям
Вы не можете скачивать файлы