Сегодня идет свободное скачивание без начисления Download

Последний корабль / The Last Ship / Сезон: 3 / Серии: 1-2 из 13 (Джек Бендер / Jack Bender) [2016, Фантастика, боевик, триллер, драма, WEB-DLRip] MVO (LostFilm)

Ответить на тему
 
Автор
Сообщение

Omen ®

Стаж: 5 лет 9 месяцев

Сообщений: 184402

Торрент-статистика

Пост 22-Июн-2016 12:00

[Цитировать]

-Последний корабль | The Last Ship-- • Год выпуска: 2016
• Страна: США
• Жанр: Фантастика, боевик, триллер, драма,
• Продолжительность: ~ 00:43:00-• Перевод: Профессиональный (многоголосый закадровый) | LostFilm-• Режиссёр: Джек Бендер / Jack Bender-• В ролях: Рона Митра, Эрик Дэйн, Адам Болдуин, Михаэлла МакМанус, Трэвис Ван Винкл, Чарльз Парнелл, Кристина Элмор, Джоко Симс, Джон Пайпер-Фергюсон и др.-• Описание: Глобальная пандемия уничтожает восемьдесят процентов населения планеты. Военный эсминец Соединенных Штатов отправляется в долгое путешествие с единственной задачей — выживать ровно столько, сколько потребуется для создания вакцины. И таким образом спасти человечество от вымирания.- --• Качество: WEB-DLRip
• Формат: AVI
• Видео: XviD, 720x400 (16:9), 23,976 fps, ~1600 kbps
• Аудио #1: MP3, 48 kHz, 2 ch, 128 kbps, CBR - Rus
• Аудио #2: MP3, 48 kHz, 2 ch, 128 kbps, CBR - Eng
• Субтитры: отсутствуют-

✘ MediaInfo ✘

Код:
Общее
Полное имя                               : X:\ATorrent\The Last Ship (Season 03) LostFilm\The.Last.Ship.[S03E01].XviD.LostFilm.[qqss44].avi
Формат                                   : AVI
Формат/Информация                        : Audio Video Interleave
Размер файла                             : 555 Мбайт
Продолжительность                        : 41 м.
Общий поток                              : 1851 Кбит/сек
Программа кодирования                    : VirtualDubMod 1.5.10.3 | www.virtualdub-fr.org || (build 2550/release)
Библиотека кодирования                   : VirtualDubMod build 2550/release
Видео
Идентификатор                            : 0
Формат                                   : MPEG-4 Visual
Профиль формата                          : Advanced Simple@L5
Параметр BVOP формата                    : 2
Параметр QPel формата                    : Нет
Параметр GMC формата                     : Без точки перехода
Параметр матрицы формата                 : Default (MPEG)
Идентификатор кодека                     : XVID
Идентификатор кодека/Подсказка           : XviD
Продолжительность                        : 41 м.
Битрейт                                  : 1581 Кбит/сек
Ширина                                   : 720 пикселей
Высота                                   : 400 пикселей
Соотношение сторон                       : 16:9
Частота кадров                           : 23,976 (23976/1000) кадра/сек
Цветовое пространство                    : YUV
Субдискретизация насыщенности            : 4:2:0
Битовая глубина                          : 8 бит
Тип развёртки                            : Прогрессивная
Метод сжатия                             : С потерями
Бит/(Пиксели*Кадры)                      : 0.229
Размер потока                            : 474 Мбайт (85%)
Библиотека кодирования                   : XviD 73
Аудио #1
Идентификатор                            : 1
Формат                                   : MPEG Audio
Версия формата                           : Version 1
Профиль формата                          : Layer 3
Режим                                    : Joint stereo
Расширение режима                        : MS Stereo
Идентификатор кодека                     : 55
Идентификатор кодека/Подсказка           : MP3
Продолжительность                        : 41 м.
Вид битрейта                             : Постоянный
Битрейт                                  : 128 Кбит/сек
Каналы                                   : 2 канала
Частота                                  : 48,0 КГц
Метод сжатия                             : С потерями
Размер потока                            : 38,4 Мбайт (7%)
Выравнивание                             : Соединение по промежуткам
Продолжительность промежутка             : 42  мс. (1,00 видеокадр)
Время предзагрузки промежутка            : 504  мс.
Аудио #2
Идентификатор                            : 2
Формат                                   : MPEG Audio
Версия формата                           : Version 1
Профиль формата                          : Layer 3
Режим                                    : Joint stereo
Расширение режима                        : MS Stereo
Идентификатор кодека                     : 55
Идентификатор кодека/Подсказка           : MP3
Продолжительность                        : 41 м.
Вид битрейта                             : Постоянный
Битрейт                                  : 128 Кбит/сек
Каналы                                   : 2 канала
Частота                                  : 48,0 КГц
Метод сжатия                             : С потерями
Размер потока                            : 38,4 Мбайт (7%)
Выравнивание                             : Соединение по промежуткам
Продолжительность промежутка             : 42  мс. (1,00 видеокадр)
Время предзагрузки промежутка            : 504  мс.

✘ Скриншоты ✘

✘ Раздача ведется путем добавления новых серий ✘

Когда раздача ведётся путём добавления новых серий, при каждом добавлении создётся новый торрент. Чтобы начать докачку новой серии, пользователям необходимо сделать следующее:
(1) остановить скачивание,
(2) удалить старый торрент у себя из клиента (старые серии удалять не надо),
(3) скачать новый торрент и запустить его у себя в клиенте вместо старого, при этом указать клиенту путь в старую папку, куда и должно происходить скачивание новых серий.
Ваш клиент при этом должен произвести хеширование (проверку) старой папки (если не производит сам - помогите ему сделать это), и будет докачивать только те серии, которых у вас ещё нет. Старые серии при этом не удаляются, а продолжают раздаваться!
Eсли вы уже удалили старые серии, то предотвратить повторную закачку старых серий можно, отжав галочку в соответсвующих местах при запуске нового торрента. По возможности, желательно не удалять старые серии как можно дольше, чтобы релизёр не столько продолжал раздавать старые серии, а смог сконцентрироваться на новых.
-
Вне форума [Профиль] [ЛС]
Похожие темы
Форум Тема Автор Торрент Отв. Посл. сообщение
./templates/default/images/folder_dl.gif Rock (Hard Rock) Led Zeppelin - Бутлеги, год 1977, часть 1, первый этап последнего тура по США - 1977, FLAC (tracks), lossless Omen
0 | 1

0 | 2375

1

2013-06-15 02:50
Omen Последнее
./templates/default/images/folder_dl.gif Обучающее видео Последовательности для начинающих. Семинар Натальи Маевской в Хакасии [2013, Йога, RUS] (Видеоурок) Omen
0 | 1

0 | 818

6

2013-08-18 21:03
Omen Последнее
./templates/default/images/folder_dl.gif Кулинария Лариса Абрикосова | Восстановление после вирусных инфекций (2015) [FB2] Omen
1 | 0

0 | 1034

9

2015-09-26 16:22
Omen Последнее
./templates/default/images/folder_dl.gif Справочники, энциклопедии и словари Михаил Пантаев | Матанализ с человеческим лицом, или Как выжить после предельного перехода. Полный курс математического анализа. Том 1 (2015) [PDF] moralis
1 | 0

0 | 1683

10

2016-03-09 21:51
moralis Последнее
./templates/default/images/folder_dl.gif Новинки (BD|HDTV|DVD) Последний богатырь (Дмитрий Дьяченко) [2017, комедия, семейный, фэнтези, WEB-DL 1080p] | iTunes Theseus
1 | 0

0 | 3157

34

2017-12-07 23:43
Theseus Последнее
./templates/default/images/folder_dl.gif Новинки (BD|HDTV|DVD) Звёздные войны: Последние джедаи / Star Wars: The Last Jedi (Райан Джонсон) [2017, фантастика, фэнтези, боевик, приключения, UHD BDRemux 2160p] DUB | iTunes Theseus
1 | 0

0 | 507

3

2018-03-15 14:03
Theseus Последнее
./templates/default/images/folder_dl.gif Фантастика, фэнтези, ужасы, мистика Павел Корнев | Последний город (2018) [MP3] }{@R0N
1 | 0

0 | 298

10

2018-04-14 00:03
}{@R0N Последнее
Показать сообщения:    
Ответить на тему

Текущее время: Сегодня 20:25

Часовой пояс: GMT + 3



Вы не можете начинать темы
Вы не можете отвечать на сообщения
Вы не можете редактировать свои сообщения
Вы не можете удалять свои сообщения
Вы не можете голосовать в опросах
Вы не можете прикреплять файлы к сообщениям
Вы не можете скачивать файлы