Сегодня идет свободное скачивание без начисления Download

Те самые дни / Другое время / Другая эпоха / Another Period / Сезон: 2 / Серии: 1 из 10 (Джереми Коннер / Jeremy Konner) [2016, комедия, WEB-DLRip] DVO (Ozz) + Original + Rus Subs

Ответить на тему
 
Автор
Сообщение

Omen ®

Стаж: 5 лет 9 месяцев

Сообщений: 184433

Торрент-статистика

Пост 22-Июн-2016 12:00

[Цитировать]

Те самые дни - Второй сезонAnother Period - Second Season- Год выпуска: 2016
Страна: США
Жанр: комедия-Продолжительность: 00:25:00
Перевод: Профессиональный (двухголосый закадровый) Ozz
Режиссёр: Джереми Коннер / Jeremy Konner
В ролях: Наташа Леджеро, Рики Линдхоум, Лорен Эш, Дэвид Кекнер, Пэйджет Брюстер, Брайан Хаски, Джейсон Риттер, Дэвид Уэйн, Майкл Иан Блэк, Бет Довер, Бретт Гельман, Кристина Хендрикс, Армен Вайцман и др.-Описание: 1901 год, шикарное поместье в одном из городов США. Избалованные сестры Беатрис и Лилиан Белакорт живут роскошной жизнью, предаваясь всем доступным им порокам. Больше всего на свете они любят комфорт, свою красоту и семейное наследство, а также кокаиновое вино и кидаться в слуг профитролями. Семья и ближайшее окружение им под стать, а их отношения достойны отдельной мыльной оперы: отец тайно находится в сексуальном рабстве у новой служанки-экс-проститутки, мать сидит на модном морфии, мужья любят не своих жен, а друг друга, а одна из сестер — своего брата.- -Sample-
Роли озвучивают: Ирина Воронова и Алексей Серёгин
Перевод: Trotteville
Подготовлено: Ozz-Качество: WEB-DLRip
Формат: MKV
Видео: x264, 960x540 (16:9), 23.976 fps, ~1500 kbps
Аудио #1: Russian 48.0 KHz, AС3, 2 channels, 192 Kbps |Ozz|
Аудио #2: English 48.0 KHz, AС3, 2 channels, 192 Kbps |Original|
Субтитры: русские (Trotteville)-

MediaInfo

General
Unique ID : 203140139630230372493034462693520580546 (0x98D35E26F7818845A26497DE4F601FC2)
Complete name : G:\Another Period Season 2 Ozz\Another.Period.S02E01.WEB-DLRip.Ozz.mkv
Format : Matroska
Format version : Version 4 / Version 2
File size : 288 MiB
Duration : 21mn 22s
Overall bit rate : 1 887 Kbps
Movie name : Те самые дни | Another Period (S02E01) - Release by Ozz
Encoded date : UTC 2016-06-22 06:24:03
Writing application : mkvmerge v6.1.0 ('Old Devil') built on Mar 4 2013 09:10:42
Writing library : libebml v1.3.0 + libmatroska v1.4.0
Video
ID : 1
Format : AVC
Format/Info : Advanced Video Codec
Format profile : High@L4.1
Format settings, CABAC : Yes
Format settings, ReFrames : 14 frames
Codec ID : V_MPEG4/ISO/AVC
Duration : 21mn 22s
Bit rate : 1 500 Kbps
Width : 960 pixels
Height : 540 pixels
Display aspect ratio : 16:9
Frame rate mode : Constant
Frame rate : 23.976 fps
Color space : YUV
Chroma subsampling : 4:2:0
Bit depth : 8 bits
Scan type : Progressive
Bits/(Pixel*Frame) : 0.121
Stream size : 224 MiB (78%)
Writing library : x264 core 142 r2431 ac76440
Encoding settings : cabac=1 / ref=14 / deblock=1:-2:-2 / analyse=0x3:0x113 / me=umh / subme=11 / psy=1 / psy_rd=1.00:0.08 / mixed_ref=1 / me_range=48 / chroma_me=1 / trellis=2 / 8x8dct=1 / cqm=0 / deadzone=21,11 / fast_pskip=1 / chroma_qp_offset=-6 / threads=12 / lookahead_threads=3 / sliced_threads=0 / nr=0 / decimate=1 / interlaced=0 / bluray_compat=0 / constrained_intra=0 / bframes=13 / b_pyramid=2 / b_adapt=2 / b_bias=0 / direct=2 / weightb=1 / open_gop=0 / weightp=2 / keyint=240 / keyint_min=22 / scenecut=40 / intra_refresh=0 / rc_lookahead=60 / rc=2pass / mbtree=1 / bitrate=1500 / ratetol=1.0 / qcomp=0.72 / qpmin=0 / qpmax=69 / qpstep=4 / cplxblur=20.0 / qblur=0.5 / vbv_maxrate=62500 / vbv_bufsize=50000 / nal_hrd=none / filler=0 / ip_ratio=1.35 / aq=1:0.80
Language : English
Default : Yes
Forced : No
Color range : Limited
Color primaries : BT.709
Transfer characteristics : BT.709
Matrix coefficients : BT.709
Audio #1
ID : 2
Format : AC-3
Format/Info : Audio Coding 3
Mode extension : CM (complete main)
Format settings, Endianness : Big
Codec ID : A_AC3
Duration : 21mn 22s
Bit rate mode : Constant
Bit rate : 192 Kbps
Channel(s) : 2 channels
Channel positions : Front: L R
Sampling rate : 48.0 KHz
Compression mode : Lossy
Stream size : 29.4 MiB (10%)
Title : DVO (Ozz)
Language : Russian
Default : Yes
Forced : No
Audio #2
ID : 3
Format : AC-3
Format/Info : Audio Coding 3
Mode extension : CM (complete main)
Format settings, Endianness : Big
Codec ID : A_AC3
Duration : 21mn 22s
Bit rate mode : Constant
Bit rate : 192 Kbps
Channel(s) : 2 channels
Channel positions : Front: L R
Sampling rate : 48.0 KHz
Compression mode : Lossy
Stream size : 29.4 MiB (10%)
Language : English
Default : No
Forced : No
Text
ID : 4
Format : UTF-8
Codec ID : S_TEXT/UTF8
Codec ID/Info : UTF-8 Plain Text
Title : Trotteville
Language : Russian
Default : No
Forced : No

Скриншоты

Внимание! Раздача ведётся путём добавления новых серий

Внимание! Раздача ведётся путём добавления новых серий; при каждом добавлении создаётся новый торрент. Чтобы начать докачку новой серии, пользователям необходимо сделать следующее:
(1) остановить скачивание,
(2) удалить старый торрент у себя из клиента (старые серии удалять не надо),
(3) скачать новый торрент и запустить его у себя в клиенте вместо старого, при этом указать клиенту путь в старую папку куда и должно происходить скачивание новых серий.
Ваш клиент при этом должен произвести хеширование (проверку) старой папки (если не производит сам - помогите ему сделать это), и будет докачивать только те серии которых у вас ещё нет. Старые серии при этом не удаляются, а продолжают раздаваться!
Eсли вы уже удалили старые серии, то предотвратить повторную закачку старых серий можно, отжав галочку в соответствующих местах при запуске нового торрента. По возможности, желательно не удалять старые серии как можно дольше чтобы релизёр не столько продолжал раздавать старые серии, а смог сконцентрироваться на новых.
-
Вне форума [Профиль] [ЛС]
Показать сообщения:    
Ответить на тему

Текущее время: Сегодня 16:42

Часовой пояс: GMT + 3



Вы не можете начинать темы
Вы не можете отвечать на сообщения
Вы не можете редактировать свои сообщения
Вы не можете удалять свои сообщения
Вы не можете голосовать в опросах
Вы не можете прикреплять файлы к сообщениям
Вы не можете скачивать файлы