Сегодня идет свободное скачивание без начисления Download

Голдберги / The Goldbergs / Сезон: 2 / Серии: 1-13 из 24 (Сет Гордон) [2014, комедия, HDTVRip-AVC] Original + Rus Subs (leicestershire, Vela и utkonosik)

Ответить на тему
 
Автор
Сообщение

Omen ®

Стаж: 5 лет 9 месяцев

Сообщений: 184433

Торрент-статистика

Пост 21-Июн-2016 03:33

[Цитировать]

Голдберги / The Goldbergs
Год выпуска: 2014
Страна: США
Жанр: комедия
Продолжительность: ~ 25 мин
Перевод: Субтитры
Авторы перевода: leicestershire (1-13), Vela (1, 2, 4, 6-10) и utkonosik (1, 3, 4, 6, 11 и 12).-Режиссёр: Сет Гордон
В ролях: Венди Маклендон-Кови, Шон Джамброун, Трой Джентиле, Хейли Оррэнтиа, Джордж Сигал, Джефф Гарлин и др.
Описание: До наступления эры блогов о воспитании, наград за посещаемость и аллергии на арахис была простая эпоха, именуемая восьмидесятыми. Счастливые годочки для 11-летнего гика Адама, который встречал их, вооруженный видеокамерой. Семья Голдбергов – обычная семья, только вот кричат они чаще. Мама Беверли – типичная еврейская мамаша, властная и не уважающая личную свободу. Папа Мюррей пытается воспитывать детей без крика, несмотря на вспыльчивый характер. Сестре и красавице Эрике 17 лет, и с ней лучше не связываться. Отличнику Барри 16 лет, и у него классический синдром среднего ребенка. Младшенький Адам будет режиссером, когда вырастет. Любимый дедушка Ал Соломон – престарелый донжуан, который учит Адама премудростям любви.-Сэмпл: http://multi-up.com/1050270
Качество: HDTVRip-AVC
Формат: MP4
Видео: 720 x 404, 23.976 fps, 1096 kbps, 0.141 bit/pixel
Аудио: 48.0 KHz, 2 ch, ~136 kbps
Субтитры: русские, английские

Список серий

  • Love Is A Mixtape / Музыка любви
  • Mama Drama / Мамулина звезда
  • The Facts of Bleeping Life / В горе и в радости
  • Shall We Play a Game / Ну, что, сыграем?
  • Family Takes Care of Beverly / Родня заботится о Бэверли
  • Big Baby Ball / Победители и проигравшие
  • A Goldberg Thanksgiving / День благодарения у Голдбергов
  • I Rode a Hoverboard / Я летал на ховерборде
  • The Most Handsome Boy on the Planet / Самый красивый парень на свете
  • Danny, Donnie, Joe, Jon and Jordan / Кто старое помянет
  • The Darryl Dawkins Dance / Любви все Голдберги покорны
  • Cowboy Country / Окрылённые
  • Van People / Отцы и дети

MediaInfo

Общее
Полное имя : D:\TV Series\The Goldbergs S02 (HDTVRip-AVC)\The Goldbergs [02x01] Love Is A Mixtape.mp4
Формат : MPEG-4
Профиль формата : Base Media
Идентификатор кодека : isom
Размер файла : 169 Мбайт
Продолжительность : 21 м.
Режим общего битрейта : Переменный
Общий поток : 1121 Кбит/сек
Дата кодирования : UTC 2014-09-25 01:01:59
Дата пометки : UTC 2014-09-25 01:01:59
Видео
Идентификатор : 2
Формат : AVC
Формат/Информация : Advanced Video Codec
Профиль формата : High@L3.1
Параметр CABAC формата : Да
Параметр ReFrames формата : 5 кадров
Идентификатор кодека : avc1
Идентификатор кодека/Информация : Advanced Video Coding
Продолжительность : 21 м.
Продолжительность оригинала : 21 м.
Битрейт : 981 Кбит/сек
Максимальный битрейт : 3360 Кбит/сек
Ширина : 720 пикселей
Высота : 404 пикселя
Соотношение сторон : 16:9
Режим частоты кадров : Постоянный
Частота кадров : 23,976 кадра/сек
Цветовое пространство : YUV
Субдискретизация насыщенности : 4:2:0
Битовая глубина : 8 бит
Тип развёртки : Прогрессивная
Бит/(Пиксели*Кадры) : 0.141
Размер потока : 148 Мбайт (87%)
Размер потока оригинала : 148 Мбайт (87%)
Библиотека кодирования : x264 core 142 r2479 dd79a61
Настройки программы : cabac=1 / ref=5 / deblock=1:0:0 / analyse=0x3:0x113 / me=umh / subme=8 / psy=1 / psy_rd=1.00:0.00 / mixed_ref=1 / me_range=16 / chroma_me=1 / trellis=1 / 8x8dct=1 / cqm=0 / deadzone=21,11 / fast_pskip=1 / chroma_qp_offset=-2 / threads=18 / lookahead_threads=3 / sliced_threads=0 / nr=0 / decimate=1 / interlaced=0 / bluray_compat=0 / constrained_intra=0 / bframes=3 / b_pyramid=2 / b_adapt=2 / b_bias=0 / direct=3 / weightb=1 / open_gop=0 / weightp=2 / keyint=250 / keyint_min=23 / scenecut=40 / intra_refresh=0 / rc_lookahead=50 / rc=crf / mbtree=1 / crf=19.0 / qcomp=0.60 / qpmin=0 / qpmax=69 / qpstep=4 / ip_ratio=1.40 / aq=1:1.00
Дата кодирования : UTC 2014-09-25 00:47:40
Дата пометки : UTC 2014-09-25 01:02:00
Цветовой диапазон : Limited
Коэффициенты матрицы : BT.709
Аудио
Идентификатор : 1
Формат : AAC
Формат/Информация : Advanced Audio Codec
Профиль формата : LC
Идентификатор кодека : 40
Продолжительность : 21 м.
Вид битрейта : Переменный
Битрейт : 136 Кбит/сек
Максимальный битрейт : 169 Кбит/сек
Каналы : 2 канала
Расположение каналов : Front: L R
Частота : 48,0 КГц
Метод сжатия : С потерями
Размер потока : 20,6 Мбайт (12%)
Дата кодирования : UTC 2014-09-25 01:01:59
Дата пометки : UTC 2014-09-25 01:02:00

Скриншоты

Внимание! Раздача ведётся путём добавления новых серий.

Раздача ведётся путём добавления новых серий; при каждом добавлении создаётся новый торрент. Чтобы начать докачку новой серии, пользователям необходимо сделать следующее:
(1) остановить скачивание,
(2) удалить старый торрент у себя из клиента (старые серии удалять не надо),
(3) скачать новый торрент и запустить его у себя в клиенте вместо старого, при этом указать клиенту путь в старую папку куда и должно происходить скачивание новых серий.
Ваш клиент при этом должен произвести хеширование (проверку) старой папки (если не производит сам - помогите ему сделать это), и будет докачивать только те серии которых у вас ещё нет. Старые серии при этом не удаляются, а продолжают раздаваться!
Eсли вы уже удалили старые серии, то предотвратить повторную закачку старых серий можно, отжав галочку в соответствующих местах при запуске нового торрента. По возможности, желательно не удалять старые серии как можно дольше чтобы релизёр не столько продолжал раздавать старые серии, а смог сконцентрироваться на новых.
Внимание, перевод любительский!
Вне форума [Профиль] [ЛС]
Показать сообщения:    
Ответить на тему

Текущее время: Сегодня 16:40

Часовой пояс: GMT + 3



Вы не можете начинать темы
Вы не можете отвечать на сообщения
Вы не можете редактировать свои сообщения
Вы не можете удалять свои сообщения
Вы не можете голосовать в опросах
Вы не можете прикреплять файлы к сообщениям
Вы не можете скачивать файлы