Сегодня идет свободное скачивание без начисления Download

Вина / Guilt / Сезон: 1 / Серии: 1 из 10 (Элизабет Аллен, Гэри Фледер) [2016, Драма, криминал, триллер, WEB-DLRip] MVO (NewStudio) + Original

Ответить на тему
 
Автор
Сообщение

Omen ®

Стаж: 5 лет 6 месяцев

Сообщений: 186946

Торрент-статистика

Пост 20-Июн-2016 00:00

[Цитировать]

ВИНАGuilt- Год выпуска: 2016
Страна: США
Жанр: Драма, криминал, триллер
Продолжительность: ~00:42:00
Перевод: Профессиональный (многоголосый закадровый) NewStudio-Режиссёр: Элизабет Аллен, Гэри Фледер
В ролях: Кристиан Солимено, Мэтт Таунсенд, Кевин Дж. Райан, Дэниэл Бен Зеноу, Катя Бокор, Дильяна Буклиева, Миклош Баньяи, Сэм Кэссиди-Описание: Ключевая фигура в изысканном, сексуальном и тревожном сериале «Guilt» - совсем юная американская студентка, учащаяся в Лондоне. Её соседка по комнате была зверски убита и главная героиня становится основной подозреваемой. По мере развёртывания расследования зритель начинает всё больше сомневаться, кто же перед ним. Наивная молодая девушка, которой не повезло попасть в прицел внимания британских таблоидов? Или социопатка, безжалостно убившая свою подругу? Даже сестра, прилетевшая защищать героиню в Лондон, узнавая всё новые слои отвратительной правды о ней, понимает, как же мало она знала родную кровь. В этой захватывающей истории представлена вся оборотная сторона современного английского общества – от шикарных секс-клубов, в которых царит разврат, до самой королевской семьи.-Доп. информация: Без рекламных ВидеоАудио вставок-Всем нетерпеливым, канал на отдачу маленький.
Ныть где сид, поддайте скорости не нужно. Не нравится - идите мимо, найдите Альтернативные раздачи.
Раздачи на трекере не предназначены для удовлетворения лично ваших запросов; не нравится раздача или скорость раздачи - молча пройдите мимо, поищите что-либо более подходящее вам, без негативных комментариев здесь.
-Сэмпл-Качество: WEB-DLRip
Формат: AVI
Видео: XviD, 720x400 (16:9), 23,976 fps, ~1500 kbps
Аудио Rus.: MP3, 48 kHz, 2 ch, 128 kbps
Аудио Eng.: MP3, 48 kHz, 2 ch, 128 kbps
Субтитры: отсутствуют

Список серий

Пилотный выпуск Pilot

MediaInfo

Код:
Полное имя                               : Guilt.S01.WEB-DLRip.RusEng.NewStudio\Guilt.S01E01.WEB-DLRip.RusEng.NewStudio.L.avi
Формат                                   : AVI
Формат/Информация                        : Audio Video Interleave
Размер файла                             : 540 Мбайт
Продолжительность                        : 43 м.
Общий поток                              : 1723 Кбит/сек
Программа кодирования                    : VirtualDubMod 1.5.10.3 (build 2550/release)
Библиотека кодирования                   : VirtualDubMod build 2550/release
Видео
Идентификатор                            : 0
Формат                                   : MPEG-4 Visual
Профиль формата                          : Advanced Simple@L5
Параметр BVOP формата                    : 2
Параметр QPel формата                    : Нет
Параметр GMC формата                     : Без точки перехода
Параметр матрицы формата                 : Default (MPEG)
Идентификатор кодека                     : XVID
Идентификатор кодека/Подсказка           : XviD
Продолжительность                        : 43 м.
Битрейт                                  : 1454 Кбит/сек
Ширина                                   : 720 пикселей
Высота                                   : 400 пикселей
Соотношение сторон                       : 16:9
Частота кадров                           : 23,976 кадра/сек
Цветовое пространство                    : YUV
Субдискретизация насыщенности            : 4:2:0
Битовая глубина                          : 8 бит
Тип развёртки                            : Прогрессивная
Метод сжатия                             : С потерями
Бит/(Пиксели*Кадры)                      : 0.210
Размер потока                            : 456 Мбайт (84%)
Библиотека кодирования                   : XviD 73
Аудио #1
Идентификатор                            : 1
Формат                                   : MPEG Audio
Версия формата                           : Version 1
Профиль формата                          : Layer 3
Режим                                    : Joint stereo
Расширение режима                        : MS Stereo
Идентификатор кодека                     : 55
Идентификатор кодека/Подсказка           : MP3
Продолжительность                        : 43 м.
Вид битрейта                             : Постоянный
Битрейт                                  : 128 Кбит/сек
Каналы                                   : 2 канала
Частота                                  : 48,0 КГц
Метод сжатия                             : С потерями
Размер потока                            : 40,1 Мбайт (7%)
Выравнивание                             : Соединение по промежуткам
Продолжительность промежутка             : 42  мс. (1,00 видеокадр)
Время предзагрузки промежутка            : 504  мс.
Аудио #2
Идентификатор                            : 2
Формат                                   : MPEG Audio
Версия формата                           : Version 1
Профиль формата                          : Layer 3
Режим                                    : Joint stereo
Расширение режима                        : MS Stereo
Идентификатор кодека                     : 55
Идентификатор кодека/Подсказка           : MP3
Продолжительность                        : 43 м.
Вид битрейта                             : Постоянный
Битрейт                                  : 128 Кбит/сек
Каналы                                   : 2 канала
Частота                                  : 48,0 КГц
Метод сжатия                             : С потерями
Размер потока                            : 40,1 Мбайт (7%)
Выравнивание                             : Соединение по промежуткам
Продолжительность промежутка             : 42  мс. (1,00 видеокадр)
Время предзагрузки промежутка            : 504  мс.

Скриншоты

Внимание! Раздача ведётся путём добавления новых серий

Внимание! Раздача ведётся путём добавления новых серий; при каждом добавлении создаётся новый торрент. Чтобы начать докачку новой серии, пользователям необходимо сделать следующее:
(1) остановить скачивание,
(2) удалить старый торрент у себя из клиента (старые серии удалять не надо),
(3) скачать новый торрент и запустить его у себя в клиенте вместо старого, при этом указать клиенту путь в старую папку куда и должно происходить скачивание новых серий.
Ваш клиент при этом должен произвести хеширование (проверку) старой папки (если не производит сам - помогите ему сделать это), и будет докачивать только те серии которых у вас ещё нет. Старые серии при этом не удаляются, а продолжают раздаваться!
Eсли вы уже удалили старые серии, то предотвратить повторную закачку старых серий можно, отжав галочку в соответствующих местах при запуске нового торрента. По возможности, желательно не удалять старые серии как можно дольше чтобы релизёр не столько продолжал раздавать старые серии, а смог сконцентрироваться на новых.
Вне форума [Профиль] [ЛС]
Показать сообщения:    
Ответить на тему

Текущее время: Сегодня 01:27

Часовой пояс: GMT + 3



Вы не можете начинать темы
Вы не можете отвечать на сообщения
Вы не можете редактировать свои сообщения
Вы не можете удалять свои сообщения
Вы не можете голосовать в опросах
Вы не можете прикреплять файлы к сообщениям
Вы не можете скачивать файлы