Сегодня идет свободное скачивание без начисления Download

По волчьим законам / Animal Kingdom / Сезон: 1 / Серии: 1-2 (10) (Кристофер Чулак, Реджина Кинг, Джон Уэллс) [2016, США, драма, криминал, WEB-DL 1080p] MVO (NewStudio) + Original

Ответить на тему
 
Автор
Сообщение

Omen ®

Стаж: 5 лет 9 месяцев

Сообщений: 184393

Торрент-статистика

Пост 19-Июн-2016 00:03

[Цитировать]

По волчьим законам / Animal Kingdom
Год выпуска: 2016
Страна: США
Жанр: драма, криминал
Продолжительность: 10 х ~48 мин
Перевод 1: Профессиональный (многоголосый закадровый) NewStudio
Режиссеры: Кристофер Чулак, Реджина Кинг, Джон Уэллс
Актеры: Эллен Баркин, Скотт Спидман, Шон Хэтоси, Бен Робсон, Джейк Вири, Финн Коул, Даниэлла Алонсо, Молли Гордон, Ники Мишо, Кристина Очоа и др.
Описание: На создание сериала создателей вдохновил одноимённый австралийский фильм Дэвида Мишо 2010 года. Это история о том, как 17-летний Джошуа Коди после смерти матери переезжает к своей родне в пляжный городок в Южной Калифорнии. Глава семьи Джанин Коди руководит семейным делом. Главный её помощник — старший из братьев Коди по имени Поуп. Остальные сыновья тоже помогают матери по мере сил. Вскоре Джошуа понимает, что фамильный бизнес связан с криминалом и что теперь он волей-неволей сделался частью этого нового для него смертельно опасного мира.
Качество: WEB-DL 1080p
Формат: MKV
Видео: 1916x1076 23.976 fps MPEG-4 AVC ~5 mbps
Аудио 1: Russian: 48 kHz, AC3, 5.1, ~384.00 kbps (NewStudio)
Аудио 2: English: 48 kHz, AC3, 5.1, ~384.00 kbps

Список эпизодов

  • Пилотный выпуск (Pilot)
  • Мы не калечим людей (We Don't Hurt People)
  • ... (...)

Скриншоты

MediaInfo

GeneralUnique ID : 206064705477331014302527574993140109846 (0x9B069E618D19E7CD928737A09236D216)Complete name : Animal.Kingdom.s01e02.1080p.NewStudio.mkvFormat : MatroskaFormat version : Version 2File size : 1.94 GiBDuration : 48mn 4sOverall bit rate : 5 786 KbpsEncoded date : UTC 2016-06-18 20:17:24Writing application : mkvmerge v9.2.0 ('Photograph') 64bitWriting library : libebml v1.3.3 + libmatroska v1.4.4
VideoID : 1Format : AVCFormat/Info : Advanced Video CodecFormat profile : High@L4Format settings, CABAC : YesFormat settings, ReFrames : 4 framesCodec ID : V_MPEG4/ISO/AVCDuration : 48mn 4sBit rate : 5 016 KbpsWidth : 1 916 pixelsHeight : 1 076 pixelsDisplay aspect ratio : 16:9Frame rate mode : ConstantFrame rate : 23.976 (23976/1000) fpsColor space : YUVChroma subsampling : 4:2:0Bit depth : 8 bitsScan type : ProgressiveBits/(Pixel*Frame) : 0.101Stream size : 1.68 GiB (87%)Language : EnglishDefault : YesForced : NoColor range : LimitedColor primaries : BT.709Transfer characteristics : BT.709Matrix coefficients : BT.709
Audio #1ID : 2Format : AC-3Format/Info : Audio Coding 3Mode extension : CM (complete main)Format settings, Endianness : BigCodec ID : A_AC3Duration : 48mn 4sBit rate mode : ConstantBit rate : 384 KbpsChannel(s) : 6 channelsChannel positions : Front: L C R, Side: L R, LFESampling rate : 48.0 KHzFrame rate : 31.250 fps (1536 spf)Compression mode : LossyStream size : 132 MiB (7%)Language : RussianDefault : YesForced : No
Audio #2ID : 3Format : AC-3Format/Info : Audio Coding 3Mode extension : CM (complete main)Format settings, Endianness : BigCodec ID : A_AC3Duration : 48mn 4sBit rate mode : ConstantBit rate : 384 KbpsChannel(s) : 6 channelsChannel positions : Front: L C R, Side: L R, LFESampling rate : 48.0 KHzFrame rate : 31.250 fps (1536 spf)Compression mode : LossyStream size : 132 MiB (7%)Language : EnglishDefault : NoForced : No

Раздача ведется путем добавления новых серий

При каждом добавлении создаётся новый торрент.
Чтобы начать докачку новой серии, пользователям необходимо сделать следующее:
  • Остановить скачивание;
  • Удалить старый торрент у себя из клиента (старые серии удалять не надо);
  • Скачать новый торрент и запустить его у себя в клиенте вместо старого, при этом указать клиенту путь в старую папку, куда и должно происходить скачивание новых серий.
    Ваш клиент при этом должен произвести хеширование (проверку) старой папки (если не производит сам - помогите ему сделать это), и будет докачивать только те серии, которых у вас ещё нет. Старые серии при этом не удаляются, а продолжают раздаваться.
    Eсли вы уже удалили старые серии, то предотвратить повторную закачку старых серий можно, сняв галочку в соответствующих местах при запуске нового торрента. По возможности, желательно не удалять старые серии как можно дольше, чтобы релизер не только продолжал раздавать старые серии, но и мог сконцентрироваться на новых.
Раздача без рекламыСкачать сэмпл | [url=tracker.php?f=189,2366&nm=Animal+Kingdom]Все раздачи сериала[/url]
Вне форума [Профиль] [ЛС]
Показать сообщения:    
Ответить на тему

Текущее время: Сегодня 20:49

Часовой пояс: GMT + 3



Вы не можете начинать темы
Вы не можете отвечать на сообщения
Вы не можете редактировать свои сообщения
Вы не можете удалять свои сообщения
Вы не можете голосовать в опросах
Вы не можете прикреплять файлы к сообщениям
Вы не можете скачивать файлы