Сегодня идет свободное скачивание без начисления Download

Водолей / Aquarius / Сезон: 1 / Серии: 1-13 из 13 (Джонас Пейт, Майкл Цинберг, Джон Эмиел) [2015, Драма, криминал, WEB-DL 720p] MVO (Jaskier) + Original + Eng Subs

Ответить на тему
 
Автор
Сообщение

Omen ®

Стаж: 6 лет 1 месяц

Сообщений: 184308

Торрент-статистика

Пост 19-Июн-2016 00:00

[Цитировать]

Водолей / Aquarius
Год выпуска: 2015
Страна: США
Жанр: Драма, криминал
Продолжительность: ~42 минуты
Перевод: Профессиональный (многоголосый закадровый) Jaskier
Режиссёр: Джонас Пейт, Майкл Цинберг, Джон Эмиел
В ролях: Дэвид Духовны, Клер Холт, Эмма Дюмон, Грэй Дэймон, Чэнс Келли, Карл Конти, Михаэлла МакМанус, Тара Барр, Дэвид Мюнье, Уитни Роуз Пинн и другие
Описание: Сюжет сериала основан на реальной истории организации «Семья» руководимой Чарльзом Мэнсоном. События фильма начинают развиваться в 1967-м году. Полицейскому Сэму поручают расследовать похищение дочери известного адвоката. Он обращается за помощью к своему коллеге, работающему под прикрытием в среде подростков-хиппи. Вместе они выходят на Чарльза Мэнсона, собравшего на своем ранчо группу «детей», среди которых он пропагандирует культуру хиппи, наркотики и групповой секс. Через два года череда зверских убийств, совершенных приспешниками Мэнсона, заставит содрогнуться от ужаса всю Америку.
Доп. информация: Перевод: Александр Митраков
Роли озвучивали: Сергей Пономарёв, Денис Строев, Вячеслав Козлов, Роман Сопко (1 серия), Таисия Тришина
Ссылка на предыдущие и альтернативные раздачи: [url=tracker.php?f=189,2366&nm=Aquarius+2015]http:///*spam*//forum/tracker.php?f=189,2366&nm=Aquarius+2015[/url]
Сэмпл: http://sendfile.su/1243893
Качество: WEB-DL 720p
Контейнер: MKV
Видео: AVC, 1280x716 (16:9), 23.976 fps, ~3900 kbps, ~0.181 bit/pixel
Аудио 1: Русский, AC-3, 48 kHz, 6 ch, 384 kbps - Jaskier
Аудио 2: Английский, AC-3, 48 kHz, 6 ch, 384 kbps - Оригинал
Субтитры: английские

MediaInfo

General
Unique ID : 189316794967025014671493486564690545827 (0x8E6D16A40507B2C9AFD0BA17FAAACCA3)
Complete name : G:\Serials\Aquarius (WEB-DL l 720p l Jaskier)\Aquarius.US.S01E01.Everybodys.Been.Burned.720p.WEB-DL.DD5.1.H264-Jaskier.mkv
Format : Matroska
Format version : Version 1
File size : 1.45 GiB
Duration : 42mn 57s
Overall bit rate : 4 834 Kbps
Encoded date : UTC 2015-05-29 19:48:23
Writing application : mkvmerge v2.3.0 ('Freak U') built on Sep 8 2008 18:32:16
Writing library : libebml v0.7.7 + libmatroska v0.8.1
Video
ID : 1
Format : AVC
Format/Info : Advanced Video Codec
Format profile : High@L3.1
Format settings, CABAC : No
Format settings, ReFrames : 2 frames
Codec ID : V_MPEG4/ISO/AVC
Duration : 42mn 57s
Bit rate : 3 970 Kbps
Width : 1 280 pixels
Height : 716 pixels
Display aspect ratio : 16:9
Frame rate mode : Constant
Frame rate : 23.976 fps
Color space : YUV
Chroma subsampling : 4:2:0
Bit depth : 8 bits
Scan type : Progressive
Bits/(Pixel*Frame) : 0.181
Stream size : 1.19 GiB (82%)
Title : Aquarius.US.S01E01.Everybodys.Been.Burned.720p.WEB-DL.DD5.1.H264-FGT
Language : English
Default : Yes
Forced : No
Color range : Limited
Color primaries : BT.709
Transfer characteristics : BT.709
Matrix coefficients : BT.709
Audio #1
ID : 2
Format : AC-3
Format/Info : Audio Coding 3
Mode extension : CM (complete main)
Format settings, Endianness : Big
Codec ID : A_AC3
Duration : 42mn 57s
Bit rate mode : Constant
Bit rate : 384 Kbps
Channel(s) : 6 channels
Channel positions : Front: L C R, Side: L R, LFE
Sampling rate : 48.0 KHz
Bit depth : 16 bits
Compression mode : Lossy
Stream size : 118 MiB (8%)
Title : Jaskier
Language : Russian
Default : Yes
Forced : No
Audio #2
ID : 3
Format : AC-3
Format/Info : Audio Coding 3
Mode extension : CM (complete main)
Format settings, Endianness : Big
Codec ID : A_AC3
Duration : 42mn 57s
Bit rate mode : Constant
Bit rate : 384 Kbps
Channel(s) : 6 channels
Channel positions : Front: L C R, Side: L R, LFE
Sampling rate : 48.0 KHz
Bit depth : 16 bits
Compression mode : Lossy
Stream size : 118 MiB (8%)
Title : Original
Language : English
Default : No
Forced : No
Text
ID : 4
Format : UTF-8
Codec ID : S_TEXT/UTF8
Codec ID/Info : UTF-8 Plain Text
Language : English
Default : No
Forced : No

Скриншоты



Вне форума [Профиль] [ЛС]
Показать сообщения:    
Ответить на тему

Текущее время: Сегодня 23:46

Часовой пояс: GMT + 3



Вы не можете начинать темы
Вы не можете отвечать на сообщения
Вы не можете редактировать свои сообщения
Вы не можете удалять свои сообщения
Вы не можете голосовать в опросах
Вы не можете прикреплять файлы к сообщениям
Вы не можете скачивать файлы