Сегодня идет свободное скачивание без начисления Download

Безмозглые / BrainDead / Сезон: 1 / Серии: 1 из 13 (Роберт Кинг / Robert King) [2016, фантастика, драма, комедия, HDTVRip 1080p] MVO (LostFilm) + Original + Rus Subs

Ответить на тему
 
Автор
Сообщение

Omen ®

Стаж: 5 лет 6 месяцев

Сообщений: 186946

Торрент-статистика

Пост 18-Июн-2016 18:03

[Цитировать]

Безмозглые - Первый сезонBrainDead - First Season- Год выпуска: 2016
Страна: США
Жанр: ужасы, фантастика, драма, комедия-Продолжительность: 00:45:00
Перевод: Профессиональный (многоголосый закадровый) LostFilm
Режиссёр: Роберт Кинг / Robert King
В ролях: Мэри Элизабет Уинстэд, Дэниэл Пино, Тони Шэлуб, Аарон Твейт, Никки М. Джеймс, Джонни Гилл, Джен Максвелл, Зак Гренье, Чарли Семине и др.-Описание: План Лорел Хили сделать карьеру в документальном кино складывается далеко не так удачно, как ей хотелось бы, из-за чего она вынуждена согласиться поработать в Конгрессе в команде ее брата — сенатора от штата Мэриленд, занимающего пост парламентского организатора фракции демократов. На новом месте девушка сталкивается сразу с двумя серьезными проблемами. Первая касается непреодолимых разногласий между демократами и республиканцами, грозящих привести к прекращению работы правительства. Вторая заключается в том, что ведущие американские политики подверглись нападению мелких инопланетных существ, питающихся мозгами людей. Чтобы узнать истинные цели этих загадочных жучков, Лорел предстоит объединить усилия с эксцентричным конспирологом Густавом Триплеттом и ординатором Рошель Додье. Число подвергшихся заражению конгрессменов и сенаторов продолжает увеличиваться, что вынуждает главную героиню принять экстренные меры по спасению американцев от полоумных политиков...- -Качество: HDTVRip 1080p
Формат: MKV
Видео: x264, 1920x1080 (16:9), 23.976 fps, ~8683 kbps
Аудио #1: Russian 48.0 KHz, AС3, 2 channels, 384 Kbps |LostFilm|
Аудио #2: English 48.0 KHz, AС3, 6 channels, 384 Kbps |Original|
Субтитры: русские (EndlesslyMuse)-

Список серий

1. Принцип Безумия: как экстремизм в политике угрожает демократии 21 века

MediaInfo

General
Unique ID : 249341510256652662008366966193379521583 (0xBB956D97D802FB5089E4EAC579D6B42F)
Complete name : F:\Braindead Season 1 whip93\Braindead.S01E01.HDTVRip.1080p.Rus.Eng.-whip93.mkv
Format : Matroska
Format version : Version 4 / Version 2
File size : 2.94 GiB
Duration : 43mn 39s
Overall bit rate : 9 643 Kbps
Movie name : Безмозглые | Braindead (S01E01) - Release by whip93
Encoded date : UTC 2016-06-17 15:23:06
Writing application : mkvmerge v6.1.0 ('Old Devil') built on Mar 4 2013 09:10:42
Writing library : libebml v1.3.0 + libmatroska v1.4.0
Video
ID : 1
Format : AVC
Format/Info : Advanced Video Codec
Format profile : High@L4.1
Format settings, CABAC : Yes
Format settings, ReFrames : 4 frames
Codec ID : V_MPEG4/ISO/AVC
Duration : 43mn 39s
Bit rate : 8 683 Kbps
Width : 1 920 pixels
Height : 1 080 pixels
Display aspect ratio : 16:9
Frame rate mode : Constant
Frame rate : 23.976 fps
Color space : YUV
Chroma subsampling : 4:2:0
Bit depth : 8 bits
Scan type : Progressive
Bits/(Pixel*Frame) : 0.175
Stream size : 2.65 GiB (90%)
Writing library : x264 core 148 r2665 a01e339
Encoding settings : cabac=1 / ref=4 / deblock=1:-3:-3 / analyse=0x3:0x133 / me=umh / subme=11 / psy=1 / psy_rd=1.00:0.00 / mixed_ref=1 / me_range=32 / chroma_me=1 / trellis=2 / 8x8dct=1 / cqm=0 / deadzone=21,11 / fast_pskip=0 / chroma_qp_offset=-2 / threads=16 / lookahead_threads=1 / sliced_threads=0 / nr=0 / decimate=1 / interlaced=0 / bluray_compat=0 / constrained_intra=0 / bframes=5 / b_pyramid=2 / b_adapt=2 / b_bias=0 / direct=3 / weightb=1 / open_gop=0 / weightp=2 / keyint=250 / keyint_min=23 / scenecut=40 / intra_refresh=0 / rc_lookahead=60 / rc=crf / mbtree=1 / crf=17.0 / qcomp=0.60 / qpmin=0 / qpmax=69 / qpstep=4 / ip_ratio=1.40 / aq=1:1.00
Language : English
Default : Yes
Forced : No
Color range : Limited
Matrix coefficients : BT.709
Audio #1
ID : 2
Format : AC-3
Format/Info : Audio Coding 3
Mode extension : CM (complete main)
Format settings, Endianness : Big
Codec ID : A_AC3
Duration : 43mn 39s
Bit rate mode : Constant
Bit rate : 384 Kbps
Channel(s) : 2 channels
Channel positions : Front: L R
Sampling rate : 48.0 KHz
Compression mode : Lossy
Stream size : 120 MiB (4%)
Language : Russian
Default : Yes
Forced : No
Audio #2
ID : 3
Format : AC-3
Format/Info : Audio Coding 3
Mode extension : CM (complete main)
Format settings, Endianness : Big
Codec ID : A_AC3
Duration : 43mn 39s
Bit rate mode : Constant
Bit rate : 384 Kbps
Channel(s) : 6 channels
Channel positions : Front: L C R, Side: L R, LFE
Sampling rate : 48.0 KHz
Compression mode : Lossy
Stream size : 120 MiB (4%)
Language : English
Default : No
Forced : No
Text
ID : 4
Format : UTF-8
Codec ID : S_TEXT/UTF8
Codec ID/Info : UTF-8 Plain Text
Language : Russian
Default : No
Forced : No

Скриншоты

Внимание! Раздача ведётся путём добавления новых серий

Внимание! Раздача ведётся путём добавления новых серий; при каждом добавлении создаётся новый торрент. Чтобы начать докачку новой серии, пользователям необходимо сделать следующее:
(1) остановить скачивание,
(2) удалить старый торрент у себя из клиента (старые серии удалять не надо),
(3) скачать новый торрент и запустить его у себя в клиенте вместо старого, при этом указать клиенту путь в старую папку куда и должно происходить скачивание новых серий.
Ваш клиент при этом должен произвести хеширование (проверку) старой папки (если не производит сам - помогите ему сделать это), и будет докачивать только те серии которых у вас ещё нет. Старые серии при этом не удаляются, а продолжают раздаваться!
Eсли вы уже удалили старые серии, то предотвратить повторную закачку старых серий можно, отжав галочку в соответствующих местах при запуске нового торрента. По возможности, желательно не удалять старые серии как можно дольше чтобы релизёр не столько продолжал раздавать старые серии, а смог сконцентрироваться на новых.
-
Вне форума [Профиль] [ЛС]
Показать сообщения:    
Ответить на тему

Текущее время: Сегодня 06:01

Часовой пояс: GMT + 3



Вы не можете начинать темы
Вы не можете отвечать на сообщения
Вы не можете редактировать свои сообщения
Вы не можете удалять свои сообщения
Вы не можете голосовать в опросах
Вы не можете прикреплять файлы к сообщениям
Вы не можете скачивать файлы